↑↓Torrent.by
Поиск
Логин: Регистрация
Пароль: Восстановить пароль
Загрузка...

Тор: Рагнарёк / Thor: Ragnarok (2017) BDRip-AVC от New-Team | Лицензия

Скачать tor-ragnarek-thor-ragnarok-2017-bdrip-avc-ot-new-team-licenziya.torrent
U Магнитная ссылка Размер: 2.92 GB Раздают: 121 Качают: 9 Добавлен: 2018-03-12 09:14:39
Тор: Рагнарёк / Thor: Ragnarok (2017) BDRip-AVC от New-Team | Лицензия

Тор: Рагнарёк
Thor: Ragnarok

«No Hammer. No Problem»

Страна: США
Жанр:  фантастика, фэнтези, боевик, комедия, приключения

Год выпуска: 2017
Продолжительность: 02:10:45

Перевод: Профессиональный (полное дублирование) [Blu-ray EUR]
Субтитры: русские (форсированные, полные, SDH), английские (полные, SDH, SDH цветные)
Оригинальная аудиодорожка: английский

Режиссер: Тайка Вайтити / Taika Waititi

В ролях: Крис Хемсворт, Том Хиддлстон, Кейт Бланшетт, Идрис Эльба, Джефф Голдблюм, Тесса Томпсон, Карл Урбан, Марк Руффало, Энтони Хопкинс, Бенедикт Камбербэтч, Тайка Вайтити, Рэйчел Хаус

Описание:
Вернувшись в Асгард в поисках таинственного врага, ведущего охоту на Камни Бесконечности, Тор обнаруживает, что действия его брата Локи, захватившего трон Асгарда, привели к приближению наиболее страшного события - Рагнарёка. По легенде это ознаменует последнюю битву Асгарда, последствием которой станет его полное уничтожение. В попытке предотвратить это событие Тору предстоит прибегнуть к помощи своего товарища из Мстителей - Халка. Вместе им предстоит столкнуться лицом к лицу со злейшим врагом всех девяти миров - огненным демоном Суртуром, целью которого является исполнение пророчества о Рагнарёке и уничтожение девяти миров.

Релиз:

Автор рипа: stalkerok

Семпл

Качество видео: BDRip-AVC [Thor: Ragnarok (2017) Blu-ray Disc -BLUEBIRD]
Формат видео: MKV
Видео кодек: AVC
Аудио кодек: AC3
Видео: AVC, 2363 Кбит/сек, 1152x482  (2.40:1), 23,976 кадр/сек
Аудио #1: AC3, 448 Кбит/сек, 48 КГц, 5.1 - русский
Аудио #2: AC3, 384 Кбит/сек, 48 КГц, 5.1 - английский
Навигация по главам: есть


[+] x264/MediaInfo


---[Information] [23.02.2018 17:43:45] x264 [info]: frame I:1972  Avg QP:17.06  size: 74376
---[Information] [23.02.2018 17:43:45] x264 [info]: frame P:46586 Avg QP:18.90  size: 24607
---[Information] [23.02.2018 17:43:45] x264 [info]: frame B:139538 Avg QP:21.55  size:  7343

Общее
Уникальный идентификатор                 : 199826052429378813114314876995277574588 (0x96551909B2EAFD95B31718938A1E51BC)
Полное имя                               : O:!RipsThor Ragnarok (2017)Thor.Ragnarok.2017.BDRip-AVC.RUS.ENG.stalkerok.new-team.mkv
Формат                                   : Matroska
Версия формата                           : Version 4 / Version 2
Размер файла                             : 2,92 Гбайт
Продолжительность                        : 2 ч. 10 м.
Общий поток                              : 3197 Кбит/сек
Название фильма                          : Thor: Ragnarok (2017) (Rip by stalkerok)
Дата кодирования                         : UTC 2018-03-11 11:50:15
Программа кодирования                    : mkvmerge v8.6.1 ('Flying') 64bit
Библиотека кодирования                   : libebml v1.3.3 + libmatroska v1.4.4

Видео
Идентификатор                            : 1
Формат                                   : AVC
Формат/Информация                        : Advanced Video Codec
Профиль формата                          : High@L4.1
Параметр CABAC формата                   : Да
Параметр ReFrames формата                : 12 кадров
Идентификатор кодека                     : V_MPEG4/ISO/AVC
Продолжительность                        : 2 ч. 10 м.
Битрейт                                  : 2363 Кбит/сек
Ширина                                   : 1152 пикселя
Высота                                   : 482 пикселя
Соотношение сторон                       : 2,40:1
Режим частоты кадров                     : Постоянный
Частота кадров                           : 23,976 (24000/1001) кадра/сек
Цветовое пространство                    : YUV
Субдискретизация насыщенности            : 4:2:0
Битовая глубина                          : 8 бит
Тип развёртки                            : Прогрессивная
Бит/(Пиксели*Кадры)                      : 0.178
Размер потока                            : 2,16 Гбайт (74%)
Заголовок                                : Thor: Ragnarok (2017) (Rip by stalkerok)
Библиотека кодирования                   : x264 core 152 r2851kMod ba24899
Настройки программы                      : cabac=1 / ref=12 / deblock=1:-3:-2 / analyse=0x3:0x133 / me=umh / subme=11 / psy=1 / fade_compensate=0.00 / psy_rd=1.00:0.00 / mixed_ref=1 / me_range=32 / chroma_me=1 / trellis=2 / 8x8dct=1 / cqm=0 / deadzone=21,11 / fast_pskip=0 / chroma_qp_offset=-2 / threads=12 / lookahead_threads=3 / sliced_threads=0 / nr=0 / decimate=1 / interlaced=0 / bluray_compat=0 / constrained_intra=0 / bframes=14 / b_pyramid=2 / b_adapt=2 / b_bias=0 / direct=3 / weightb=1 / open_gop=0 / weightp=2 / keyint=240 / keyint_min=23 / scenecut=40 / intra_refresh=0 / rc_lookahead=60 / rc=crf / mbtree=0 / crf=18.2000 / qcomp=0.65 / qpmin=0 / qpmax=69 / qpstep=4 / vbv_maxrate=50000 / vbv_bufsize=62500 / crf_max=0.0 / nal_hrd=none / filler=0 / ip_ratio=1.40 / pb_ratio=1.30 / aq=3:0.80 / zones=177645,186466,q=30/187378,188095,q=30
Default                                  : Да
Forced                                   : Нет

Аудио #1
Идентификатор                            : 2
Формат                                   : AC-3
Формат/Информация                        : Audio Coding 3
Расширение режима                        : CM (complete main)
Параметр Endianness формата              : Big
Идентификатор кодека                     : A_AC3
Продолжительность                        : 2 ч. 10 м.
Вид битрейта                             : Постоянный
Битрейт                                  : 448 Кбит/сек
Каналы                                   : 6 каналов
Расположение каналов                     : Front: L C R, Side: L R, LFE
Частота                                  : 48,0 КГц
Частота кадров                           : 31,250 кадров/сек (1536 spf)
Метод сжатия                             : С потерями
Размер потока                            : 418 Мбайт (14%)
Язык                                     : Russian
Default                                  : Да
Forced                                   : Нет

Аудио #2
Идентификатор                            : 3
Формат                                   : AC-3
Формат/Информация                        : Audio Coding 3
Расширение режима                        : CM (complete main)
Параметр Endianness формата              : Big
Идентификатор кодека                     : A_AC3
Продолжительность                        : 2 ч. 10 м.
Вид битрейта                             : Постоянный
Битрейт                                  : 384 Кбит/сек
Каналы                                   : 6 каналов
Расположение каналов                     : Front: L C R, Side: L R, LFE
Частота                                  : 48,0 КГц
Частота кадров                           : 31,250 кадров/сек (1536 spf)
Метод сжатия                             : С потерями
Размер потока                            : 358 Мбайт (12%)
Язык                                     : English
Default                                  : Нет
Forced                                   : Нет

Текст #1
Идентификатор                            : 4
Формат                                   : UTF-8
Идентификатор кодека                     : S_TEXT/UTF8
Идентификатор кодека/Информация          : UTF-8 Plain Text
Продолжительность                        : 1 ч. 56 м.
Битрейт                                  : 0 бит/сек
Count of elements                        : 4
Размер потока                            : 216 байт (0%)
Заголовок                                : Forced
Язык                                     : Russian
Default                                  : Да
Forced                                   : Нет

Текст #2
Идентификатор                            : 5
Формат                                   : UTF-8
Идентификатор кодека                     : S_TEXT/UTF8
Идентификатор кодека/Информация          : UTF-8 Plain Text
Продолжительность                        : 2 ч. 9 м.
Битрейт                                  : 77 бит/сек
Count of elements                        : 1576
Размер потока                            : 73,5 Кбайт (0%)
Язык                                     : Russian
Default                                  : Нет
Forced                                   : Нет

Текст #3
Идентификатор                            : 6
Формат                                   : UTF-8
Идентификатор кодека                     : S_TEXT/UTF8
Идентификатор кодека/Информация          : UTF-8 Plain Text
Продолжительность                        : 2 ч. 10 м.
Битрейт                                  : 87 бит/сек
Count of elements                        : 2092
Размер потока                            : 83,8 Кбайт (0%)
Заголовок                                : SDH
Язык                                     : Russian
Default                                  : Нет
Forced                                   : Нет

Текст #4
Идентификатор                            : 7
Формат                                   : UTF-8
Идентификатор кодека                     : S_TEXT/UTF8
Идентификатор кодека/Информация          : UTF-8 Plain Text
Продолжительность                        : 2 ч. 9 м.
Битрейт                                  : 51 бит/сек
Count of elements                        : 1761
Размер потока                            : 48,9 Кбайт (0%)
Язык                                     : English
Default                                  : Нет
Forced                                   : Нет

Текст #5
Идентификатор                            : 8
Формат                                   : UTF-8
Идентификатор кодека                     : S_TEXT/UTF8
Идентификатор кодека/Информация          : UTF-8 Plain Text
Продолжительность                        : 2 ч. 10 м.
Битрейт                                  : 58 бит/сек
Count of elements                        : 2082
Размер потока                            : 55,4 Кбайт (0%)
Заголовок                                : SDH
Язык                                     : English
Default                                  : Нет
Forced                                   : Нет

Текст #6
Идентификатор                            : 9
Формат                                   : UTF-8
Идентификатор кодека                     : S_TEXT/UTF8
Идентификатор кодека/Информация          : UTF-8 Plain Text
Продолжительность                        : 2 ч. 10 м.
Битрейт                                  : 76 бит/сек
Count of elements                        : 2081
Размер потока                            : 72,6 Кбайт (0%)
Заголовок                                : SDH Colored
Язык                                     : English
Default                                  : Нет
Forced                                   : Нет

Меню
00:00:00.000                             : en:The Great Prophecy
00:06:20.671                             : en:The Tragedy Of Loki Of Asgard
00:14:11.642                             : en:A Worthy Inclusion
00:22:12.873                             : en:The Goddess Of Death
00:26:43.059                             : en:"Are You A Fighter, Or Are You Food?"
00:31:29.721                             : en:Heiress Apparent
00:35:04.519                             : en:The Grandmaster
00:42:49.733                             : en:The Eternal Flame
00:48:31.617                             : en:The Contest Of Champions
00:59:38.783                             : en:The Resistance
01:07:57.907                             : en:Hotheaded Fools
01:17:30.604                             : en:The Revengers
01:27:25.323                             : en:"The Revolution Has Begun"
01:36:08.721                             : en:Ready For War
01:42:35.732                             : en:"Asgard Is Not A Place"
01:49:19.886                             : en:"What Were You The God Of Again?"
01:54:57.599                             : en:Ragnarok
02:00:37.521                             : en:End Credits




Скриншоты:
[+] Всего файлов в раздаче - 1:
Thor.Ragnarok.2017.BDRip-AVC.RUS.ENG.stalkerok.new-team.mkv2.92 GB

Отзывы
Зарегистрируйтесь чтобы добавить комментарий.
Обратная связь
Copyleft ©