↑↓Torrent.by
Поиск
Логин: Регистрация
Пароль: Восстановить пароль
Загрузка...

Колыбельная / Siembamba / The Lullaby (2018) WEBRip 720p | L2

Скачать kolybelnaya-siembamba-the-lullaby-2018-webrip-720p-l2.torrent
U Магнитная ссылка Размер: 1.74 GB Раздают: 44 Качают: 14 Добавлен: 2018-03-12 09:14:42
Колыбельная / Siembamba / The Lullaby (2018) WEBRip 720p | L2

Название: Колыбельная
Оригинальное название: Siembamba / The Lullaby

Год выхода: 2018
Жанр: ужасы
Режиссер: Даррелл Рудт
В ролях: Брэндон Оре, Рейне Сварт, Дианре Рейнерс, Танди Пурен, Дороти Энн Гулд, Сэмюэль Фрауэнштейн, Шайла-Рей Макфарлейн, Лара де Вильерс и другие
О фильме:
Молодая девушка вернулась в родной городок с ребёнком. Где ей помогают её мама и старый друг. Но одной ночью у неё возникают видения об убийстве собственного сына...

Страна: ЮАР, Cut & Paste Generation
Продолжительность: 01:27:06
Перевод: Любительский (двухголосый закадровый) | HiWay Grope

Файл
Кодек: MPEG-4 AVC/H.264
Качество: WEBRip 720p
Видео: 1280x536, 24.000 fps, ~2416 kbps, 0.147 bit/pixel
Звук:
Аудио rus: AC3, 48 kHz, 6 ch, 384 Kbps
Субтитры: отсутствуют

Реклама: присутствует

Семпл

Релиз от: HiWay Grope


[+] MediaInfo:

General
Unique ID                                : 190529062088695281935784328468523531272 (0x8F5690063E40CE489D16C1453C6E3C08)
Complete name                            : E:The.Lullaby.2017.720p.WEBRip.HiWayGropeThe.Lullaby.2017.720p.WEBRip.HiWayGrope.mkv
Format                                   : Matroska
Format version                           : Version 4 / Version 2
File size                                : 1.74 GiB
Duration                                 : 1h 27mn
Overall bit rate                         : 2 856 Kbps
Encoded date                             : UTC 2018-03-11 10:33:01
Writing application                      : mkvmerge v18.0.0 ('Apricity') 64-bit
Writing library                          : libebml v1.3.5 + libmatroska v1.4.8

Video
ID                                       : 1
Format                                   : AVC
Format/Info                              : Advanced Video Codec
Format profile                           : Main@L3.1
Format settings, CABAC                   : Yes
Format settings, ReFrames                : 4 frames
Codec ID                                 : V_MPEG4/ISO/AVC
Duration                                 : 1h 27mn
Bit rate                                 : 2 416 Kbps
Width                                    : 1 280 pixels
Height                                   : 536 pixels
Display aspect ratio                     : 2.40:1
Frame rate mode                          : Constant
Frame rate                               : 24.000 fps
Color space                              : YUV
Chroma subsampling                       : 4:2:0
Bit depth                                : 8 bits
Scan type                                : Progressive
Bits/(Pixel*Frame)                       : 0.147
Stream size                              : 1.47 GiB (85%)
Language                                 : English
Default                                  : Yes
Forced                                   : No
Color range                              : Limited
Color primaries                          : BT.601 NTSC
Transfer characteristics                 : BT.601
Matrix coefficients                      : BT.601

Audio
ID                                       : 2
Format                                   : AC-3
Format/Info                              : Audio Coding 3
Mode extension                           : CM (complete main)
Format settings, Endianness              : Big
Codec ID                                 : A_AC3
Duration                                 : 1h 27mn
Bit rate mode                            : Constant
Bit rate                                 : 384 Kbps
Channel(s)                               : 6 channels
Channel positions                        : Front: L C R, Side: L R, LFE
Sampling rate                            : 48.0 KHz
Frame rate                               : 31.250 fps (1536 spf)
Compression mode                         : Lossy
Stream size                              : 239 MiB (13%)
Title                                    : rus
Language                                 : Russian
Default                                  : Yes
Forced                                   : No




Скриншоты:
[+] Всего файлов в раздаче - 1:
The.Lullaby.2017.720p.WEBRip.HiWayGrope.mkv1.74 GB

Текущая раздача:
ДатаКомментарии    РазмерПиры
2018-03-12 U Колыбельная / Siembamba / The Lullaby (2018) WEBRip 720p | L2 1.74 GB ↑ 44 ↓ 14

Похожие раздачи по запросу - колыбельная:
2018-03-12 U Колыбельная / Siembamba / The Lullaby (2018) WEBRip | L2 1.33 GB ↑ 84 ↓ 32
2016-02-06 U Колыбельная / Lullaby (2014) WEB-DLRip | P 1.46 GB ↑ 219 ↓ 19
2014-02-19 U Колыбельная для Беллы / LelleBelle (2010) DVDRip | Sub 1.45 GB ↑ 317 ↓ 48

Отзывы
Зарегистрируйтесь чтобы добавить комментарий.
Обратная связь
Copyleft ©