↑↓Torrent.by
Поиск
Логин: Регистрация
Пароль: Восстановить пароль
Загрузка...

Звездные войны: Последние джедаи / Star Wars: Episode VIII - The Last Jedi (2017) HDRip | Sub

Скачать zvezdnye-voyny-poslednie-dzhedai-star-wars-episode-viii-the-last-jedi-2017-hdrip-sub.torrent
U Магнитная ссылка Размер: 2.18 GB Раздают: 208 Качают: 131 Добавлен: 2018-03-12 12:18:02
Звездные войны: Последние джедаи / Star Wars: Episode VIII - The Last Jedi (2017) HDRip | Sub

Название: Звездные войны: Последние джедаи
Оригинальное название: Star Wars: Episode VIII
Год выхода: 2017
Жанр: фантастика, фэнтези, боевик, приключения
Режиссер: Райан Джонсон
В ролях: Марк Хэмилл, Кэрри Фишер, Адам Драйвер, Дэйзи Ридли, Джон Бойега, Оскар Айзек, Энди Серкис, Лупита Нионго, Донал Глисон, Энтони Дэниелс

Описание:
Новая история о противостоянии света и тьмы, добра и зла начинается после гибели Хана Соло. В Галактике, где Первый Орден и Сопротивление яростно сражаются друг с другом в войне, героиня Рей пробудила в себе Силу. Но что произойдет, когда она встретится с единственным оставшимся в живых рыцарем-джедаем — Люком Скайуокером?
Кайло Рен перешел на Темную сторону Силы и убил собственного отца, заняв высокую позицию в Первом Ордене. Но куда приведут его неуемные амбиции, подаренные по наследству грозным дедом Дартом Вейдером? Ситуация обострится еще больше, когда мать Кайло, лидер Сопротивления Лея, вместе с По, Финном и BB-8 приступит к новой миссии.

 
Страна: США
Студия: Lucasfilm Ltd
Продолжительность: 02:31:51
Перевод: Субтитры
Субтитры: Русские (полные) (SRT)
Оригинальная аудиодорожка: Английская

Файл
Кодек: XviD
Качество: HDRip
Видео: MPEG-4, XviD, 720x302, 23.976 fps, ~1585 kbps
Аудио: AC3 Dolby Digital, 6 ch, 448 kbps, 48 kHz (Английский)
Субтитры: Русские, Английские

Сэмпл: скачать

Релиз от: apollion.

ОБНОВЛЕНИЕ РАЗДАЧИ.
Произведена замена русских субтитров на новые исправленные.
Исправлены:
Грамматика, типографика, тайминг - пересекающиеся субтитры, несколько непереведенных слов.

Автор русских субтитров: Jet. Литературная редакция: apollion.

Перекачайте, пожалуйста, торрент. Тем, кто скачал раздачу ранее, можно скачать только 2 файла субтитров, удалить старые субтитры из папки и положить новые субтитры в папку с фильмом.

Более ничего не менялось. Файл фильма тот же.



[+] MediaInfo

Общее
Формат                           : AVI
Формат/Информация                : Audio Video Interleave
Профиль формата                  : OpenDML
Размер файла                     : 2,18 Гбайт
Продолжительность                : 2 ч. 31 м.
Общий поток                      : 2057 Кбит/сек
Программа кодирования            : Lavf57.83.100
Библиотека кодирования           : VirtualDub build 35491/release

Видео
Идентификатор                    : 0
Формат                           : MPEG-4 Visual
Профиль формата                  : Simple@L5
Параметр BVOP формата            : Нет
Параметр QPel формата            : Нет
Параметр GMC формата             : Без точки перехода
Параметр матрицы формата         : Default (H.263)
Идентификатор кодека             : XVID
Идентификатор кодека/Подсказка   : XviD
Продолжительность                : 2 ч. 31 м.
Битрейт                          : 1597 Кбит/сек
Ширина                           : 720 пикс.
Высота                           : 302 пикс.
Соотношение сторон               : 2,40:1
Частота кадров                   : 23,976 кадр/сек
Цветовое пространство            : YUV
Подвыборка цветности             : 4:2:0
Битовая глубина                  : 8 бит
Тип развёртки                    : Прогрессивная
Метод сжатия                     : С потерями
Бит/(Пиксели*Кадры)              : 0.306
Размер потока                    : 1,69 Гбайт (78%)
Библиотека кодирования           : Lavc57.107.100

Аудио
Идентификатор                    : 1
Формат                           : AC-3
Формат/Информация                : Audio Coding 3
Расширение режима                : CM (complete main)
Идентификатор кодека             : 2000
Продолжительность                : 2 ч. 31 м.
Вид битрейта                     : Постоянный
Битрейт                          : 448 Кбит/сек
Каналы                           : 6 каналов
Расположение каналов             : Front: L C R, Side: L R, LFE
Частота                          : 48,0 КГц
Битовая глубина                  : 16 бит
Метод сжатия                     : С потерями
Размер потока                    : 487 Мбайт (22%)
Выравнивание                     : Соединение по промежуткам
Продолжительность промежутка     : 42  мс. (1,00 видеокадр)
Время предзагрузки промежутка    : 512 ms




Скриншоты:
[+] Всего файлов в раздаче - 3:
Star.Wars.The.Last.Jedi.2017.BDRip.XviD.AC3-XVID.apollion.avi2.18 GB
Star.Wars.The.Last.Jedi.2017.BDRip.XviD.AC3-XVID.apollion.English.srt102.20 kB
Star.Wars.The.Last.Jedi.2017.BDRip.XviD.AC3-XVID.apollion.srt94.85 kB

Текущая раздача:
ДатаКомментарии    РазмерПиры
2018-03-12 U Звездные войны: Последние джедаи / Star Wars: Episode VIII - The Last Jedi (2017) HDRip | Sub 2.18 GB ↑ 208 ↓ 131

Показать еще раздачи по запросу звездные:
2018-05-07 U Звездные войны: Последние джедаи / Star Wars: Episode VIII - The Last Jedi (2017) BDRip от MegaPeer | Лицензия 2.18 GB ↑ 462 ↓ 20
2018-05-01 U Звездные войны: Последние джедаи / Star Wars: Episode VIII - The Last Jedi (2017) BDRip-HEVC 1080p от Cthulhu | D | Локализованная версия 7.44 GB ↑ 113 ↓ 1
2018-04-30 U Звёздные войны: Последние джедаи / Star Wars: Episode VIII - The Last Jedi (2017) HDRip от Scarabey | Лицензия 1.45 GB ↑ 606 ↓ 33
2018-04-29 U Звёздные войны: Последние джедаи / Star Wars: Episode VIII - The Last Jedi (2017) HDRip от Scarabey | Лицензия 2.18 GB ↑ 62 ↓ 22
2018-04-28 U Звёздные войны: Последние джедаи / Star Wars: Episode VIII - The Last Jedi (2017) BDRip 1080p от Ash61 | 3D-Video | halfOU | Локализованная версия | Лицензия 14.62 GB ↑ 73 ↓ 57
2018-04-28 U Звёздные войны: Последние джедаи / Star Wars: Episode VIII - The Last Jedi (2017) BDRip 720p от Scarabey | Лицензия 5.38 GB ↑ 224 ↓ 15
2018-04-28 U Звездные войны: Последние джедаи / Star Wars: Episode VIII - The Last Jedi (2017) BDRip-AVC от MediaClub | D | Локализованная версия | Лицензия 3.06 GB ↑ 52 ↓ 23

Отзывы
Зарегистрируйтесь чтобы добавить комментарий.
Обратная связь
Copyleft ©