↑↓Torrent.by
Поиск
Логин: Регистрация
Пароль: Восстановить пароль
Загрузка...

Исчезновение Сидни Холла / The Vanishing of Sidney Hall (2017) WEBRip | L2

Скачать ischeznovenie-sidni-holla-the-vanishing-of-sidney-hall-2017-webrip-l2.torrent
U Магнитная ссылка Размер: 1.35 GB Раздают: 283 Качают: 62 Добавлен: 2018-03-12 21:03:09
Исчезновение Сидни Холла / The Vanishing of Sidney Hall (2017) WEBRip | L2

Название: Исчезновение Сидни Холла
Оригинальное название: The Vanishing of Sidney Hall

Год выхода: 2017
Жанр: драма, детектив
Режиссер: Шон Кристенсен
В ролях: Янина Гаванкар, Мишель Монахэн, Элль Фэннинг, Логан Лерман, Маргарет Куэлли, Блейк Дженнер, Кайл Чандлер, Натан Лэйн, Тим Блэйк Нельсон, Яхья Абдул-Матин II и другие
О фильме:
Три этапа в жизни Сидни Холла, который пишет книгу о своем поколении, а затем исчезает без следа.

Страна: США, Fuzzy Logic Pictures, Super Crispy Entertainment
Продолжительность: 02:01:00
Перевод: Любительский (двухголосый закадровый) | HiWay Grope

Файл
Кодек: XviD
Качество: WEBRip
Видео: 720x304, 23.976 fps, ~1395 kbps, 0.27 bit/pixel
Звук:
Аудио rus: AC3, 48 kHz, 2 ch, 192 Kbps
Субтитры: отсутствуют

Реклама: присутствует

Семпл

Релиз от: HiWay Grope


[+] MediaInfo:

General
Complete name                            : E:The.Vanishing.of.Sidney.Hall.2017.WEBRip.HiWayGropeThe.Vanishing.of.Sidney.Hall.2017.WEBRip.HiWayGrope.avi
Format                                   : AVI
Format/Info                              : Audio Video Interleave
File size                                : 1.35 GiB
Duration                                 : 2h 1mn
Overall bit rate                         : 1 597 Kbps
Writing application                      : VirtualDubMod 1.5.10.3 (build 2550/release)
Writing library                          : VirtualDubMod build 2550/release

Video
ID                                       : 0
Format                                   : MPEG-4 Visual
Format profile                           : Advanced Simple@L5
Format settings, BVOP                    : 1
Format settings, QPel                    : No
Format settings, GMC                     : No warppoints
Format settings, Matrix                  : Default (MPEG)
Codec ID                                 : XVID
Codec ID/Hint                            : XviD
Duration                                 : 2h 1mn
Bit rate                                 : 1 395 Kbps
Width                                    : 720 pixels
Height                                   : 304 pixels
Display aspect ratio                     : 2.35:1
Frame rate                               : 23.976 (23976/1000) fps
Color space                              : YUV
Chroma subsampling                       : 4:2:0
Bit depth                                : 8 bits
Scan type                                : Progressive
Compression mode                         : Lossy
Bits/(Pixel*Frame)                       : 0.266
Stream size                              : 1.18 GiB (87%)
Writing library                          : XviD 73

Audio
ID                                       : 1
Format                                   : AC-3
Format/Info                              : Audio Coding 3
Mode extension                           : CM (complete main)
Format settings, Endianness              : Big
Codec ID                                 : 2000
Duration                                 : 2h 1mn
Bit rate mode                            : Constant
Bit rate                                 : 192 Kbps
Channel(s)                               : 2 channels
Channel positions                        : Front: L R
Sampling rate                            : 48.0 KHz
Frame rate                               : 31.250 fps (1536 spf)
Compression mode                         : Lossy
Stream size                              : 166 MiB (12%)
Alignment                                : Split accross interleaves
Interleave, duration                     : 42 ms (1.00 video frame)
Interleave, preload duration             : 500 ms




Скриншоты:
[+] Всего файлов в раздаче - 1:
The.Vanishing.of.Sidney.Hall.2017.WEBRip.HiWayGrope.avi1.35 GB

Текущая раздача:
ДатаКомментарии    РазмерПиры
2018-03-12 U Исчезновение Сидни Холла / The Vanishing of Sidney Hall (2017) WEBRip | L2 1.35 GB ↑ 283 ↓ 62

Показать еще раздачи по запросу исчезновение:
2018-06-09 U Исчезновение Сидни Холла / The Vanishing of Sidney Hall (2017) BDRip от ExKinoRay | iTunes 1.41 GB ↑ 25 ↓ 14
2018-06-08 U Исчезновение Сидни Холла / The Vanishing of Sidney Hall (2017) BDRip от ExKinoRay | iTunes 2.13 GB ↑ 43 ↓ 7
2018-06-07 U Исчезновение Сидни Холла / The Vanishing of Sidney Hall (2018) HDRip от Scarabey | iTunes 1.39 GB ↑ 57 ↓ 17
2018-06-06 U Исчезновение Сидни Холла / The Vanishing of Sidney Hall (2017) BDRip 720p от HELLYWOOD | iTunes 4.32 GB ↑ 135 ↓ 71
2018-06-06 U Исчезновение Сидни Холла / The Vanishing of Sidney Hall (2017) BDRip 1080p | iTunes 11.21 GB ↑ 144 ↓ 95
2018-06-04 U Исчезновение Сидни Холла / The Vanishing of Sidney Hall (2017) BDRip от MegaPeer | iTunes 745.43 MB ↑ 83 ↓ 34
2018-06-04 U Исчезновение Сидни Холла / The Vanishing of Sidney Hall (2017) BDRip от MegaPeer | iTunes 2.13 GB ↑ 111 ↓ 48

Отзывы
Зарегистрируйтесь чтобы добавить комментарий.
Обратная связь
Copyleft ©