↑↓Torrent.by
Поиск
Логин: Регистрация
Пароль: Восстановить пароль
Загрузка...

Приключения Паддингтона 2 / Paddington 2 (2017) BDRip 1080p от qqss44 & MegaPeer | iTunes

Скачать priklyucheniya-paddingtona-2-paddington-2017-bdrip-1080p-ot-qqss44-megapeer-itunes.torrent
U Магнитная ссылка Размер: 6.68 GB Раздают: 123 Качают: 207 Добавлен: 2018-03-13 08:03:12
Приключения Паддингтона 2 / Paddington 2 (2017) BDRip 1080p от qqss44 & MegaPeer | iTunes

Анонсы 1080p от qqss44

Информация о фильме
Название: Приключения Паддингтона 2
Оригинальное название: Paddington 2
Год выпуска: 2017
Жанр: Фэнтези, комедия, семейный
Режиссер: Пол Кинг
В ролях: Майкл Гэмбон, Имелда Стонтон, Бен Уишоу, Мадлен Харрис, Сэмюэл Джослин, Салли Хокинс, Хью Бонневилль, Джули Уолтерс, Мари-Франс Альварез, Санджив Бхаскар

О фильме:
В антикварном магазине Лондона обаятельный и хорошо воспитанный медведь Паддингтон находит уникальную старинную книгу. Пока он изо всех своих медвежьих сил старается накопить на нее деньги, редчайшее издание внезапно похищают. Паддингтон оказывается вовлечен в аферу века, затеянную знаменитым, но вышедшим в тираж актером, который ныне рекламирует собачьи консервы, а свой талант к перевоплощению использует в охоте за сокровищами, спрятанными по всему Лондону.

Страна: Великобритания, Франция, США
Студия: Amazon Prime Instant Video
Продолжительность: 01:43:17
Перевод: Дублированный | iTunes

Файл
Формат: MKV, BDRip 1080p
Видео: MPEG-4 AVC, 8888 Кбит/с, 1920x802
Aудио#1: [RUS] AC3 | 48 KHz | 5.1 (Front: L С R Side: L R) + LFE | ~384 kbps
Релиз от:


[+] МИ

Общее
Уникальный идентификатор                 : 191545475925001315196435932849964804648 (0x901A5118778BCD9DB9738A81CC836A28)
Полное имя                               : H:Paddington.2.(2017).BDRip-1080p.MegaPeer.(qqss44).mkv
Формат                                   : Matroska
Версия формата                           : Version 2
Размер файла                             : 6,68 Гбайт
Продолжительность                        : 1 ч. 43 м.
Общий поток                              : 9265 Кбит/сек
Название фильма                          : Paddington.2.(2017).BDRip-1080p.MegaPeer.(qqss44)
Дата кодирования                         : UTC 2018-03-12 19:49:35
Программа кодирования                    : mkvmerge v5.8.0 ('No Sleep / Pillow') built on Sep  2 2012 15:37:04
Библиотека кодирования                   : libebml v1.2.3 + libmatroska v1.3.0

Видео
Идентификатор                            : 1
Формат                                   : AVC
Формат/Информация                        : Advanced Video Codec
Профиль формата                          : High@L4.1
Параметр CABAC формата                   : Да
Параметр ReFrames формата                : 5 кадров
Идентификатор кодека                     : V_MPEG4/ISO/AVC
Продолжительность                        : 1 ч. 43 м.
Битрейт                                  : 8888 Кбит/сек
Ширина                                   : 1920 пикселей
Высота                                   : 802 пикселя
Соотношение сторон                       : 2,40:1
Режим частоты кадров                     : Постоянный
Частота кадров                           : 24,000 кадра/сек
Цветовое пространство                    : YUV
Субдискретизация насыщенности            : 4:2:0
Битовая глубина                          : 8 бит
Тип развёртки                            : Прогрессивная
Бит/(Пиксели*Кадры)                      : 0.241
Размер потока                            : 6,27 Гбайт (94%)
Библиотека кодирования                   : x264 core 152 r2851 ba24899
Настройки программы                      : cabac=1 / ref=5 / deblock=1:-3:-3 / analyse=0x3:0x113 / me=umh / subme=11 / psy=1 / psy_rd=1.00:0.00 / mixed_ref=1 / me_range=32 / chroma_me=1 / trellis=2 / 8x8dct=1 / cqm=0 / deadzone=21,11 / fast_pskip=0 / chroma_qp_offset=-2 / threads=12 / lookahead_threads=2 / sliced_threads=0 / nr=0 / decimate=0 / interlaced=0 / bluray_compat=0 / constrained_intra=0 / bframes=8 / b_pyramid=2 / b_adapt=2 / b_bias=0 / direct=3 / weightb=1 / open_gop=0 / weightp=2 / keyint=250 / keyint_min=23 / scenecut=40 / intra_refresh=0 / rc_lookahead=40 / rc=2pass / mbtree=0 / bitrate=8888 / ratetol=1.0 / qcomp=0.60 / qpmin=0 / qpmax=69 / qpstep=4 / cplxblur=20.0 / qblur=0.5 / vbv_maxrate=50000 / vbv_bufsize=62500 / nal_hrd=none / filler=0 / ip_ratio=1.40 / pb_ratio=1.30 / aq=3:0.70
Язык                                     : English
Default                                  : Да
Forced                                   : Нет

Аудио
Идентификатор                            : 2
Формат                                   : AC-3
Формат/Информация                        : Audio Coding 3
Расширение режима                        : CM (complete main)
Параметр Endianness формата              : Big
Идентификатор кодека                     : A_AC3
Продолжительность                        : 1 ч. 43 м.
Вид битрейта                             : Постоянный
Битрейт                                  : 384 Кбит/сек
Каналы                                   : 6 каналов
Расположение каналов                     : Front: L C R, Side: L R, LFE
Частота                                  : 48,0 КГц
Частота кадров                           : 31,250 кадров/сек (1536 spf)
Метод сжатия                             : С потерями
Размер потока                            : 284 Мбайт (4%)
Язык                                     : Russian
Default                                  : Да
Forced                                   : Нет

Меню
00:00:00.000                             : en:Chapter 01
00:08:08.500                             : en:Chapter 02
00:18:48.541                             : en:Chapter 03
00:27:05.958                             : en:Chapter 04
00:38:47.333                             : en:Chapter 05
00:47:46.875                             : en:Chapter 06
00:55:53.666                             : en:Chapter 07
01:02:17.458                             : en:Chapter 08
01:09:31.833                             : en:Chapter 09
01:16:39.000                             : en:Chapter 10
01:24:13.208                             : en:Chapter 11
01:33:50.208                             : en:Chapter 12




Скриншоты:
[+] Всего файлов в раздаче - 1:
Paddington.2.(2017).BDRip-1080p.MegaPeer.(qqss44).mkv6.68 GB

Текущая раздача:
ДатаКомментарии    РазмерПиры
2018-03-13 U Приключения Паддингтона 2 / Paddington 2 (2017) BDRip 1080p от qqss44 & MegaPeer | iTunes 6.68 GB ↑ 123 ↓ 207

Показать еще раздачи по запросу приключения:
2018-06-11 U OST - Крылатые качели - песни из телефильма «Приключения Электроника» (1980) MP3 48.94 MB ↑ 64 ↓ 18
2018-05-25 U Невероятные приключения янки в Африке / Yankee Zulu (1993) WEB-DLRip 1080p | P, P2 8.78 GB ↑ 105 ↓ 33
2018-04-08 U Приключения гангстеров в Нью-Йорке / La leggenda di Al, John e Jack (2002) DVDRip-AVC от ExKinoRay | D 2.27 GB ↑ 41 ↓ 18
2018-04-04 U Армейские приключения / In the Army Now (1994) WEB-DL 1080p | P, P2, A 9.76 GB ↑ 25 ↓ 12
2018-03-25 U Приключения Васи Куролесова (1981) BDRip 1080p от KORSAR 1К2.18 GB ↑ 33 ↓ 10
2018-03-20 U Забавные приключения Дика и Джейн / Fun with Dick and Jane (1977) DVDRip-AVC | D, P, P2 1.80 GB ↑ 57 ↓ 9
2018-03-14 U Приключения Паддингтона 2 / Paddington 2 (2017) HDRip-AVC | iTunes 748.47 MB ↑ 70 ↓ 35

Отзывы
Зарегистрируйтесь чтобы добавить комментарий.
Обратная связь
Copyleft ©