↑↓Torrent.by
Поиск
Логин: Регистрация
Пароль: Восстановить пароль
Загрузка...

Аутсайдер / The Outsider (2018) WEBRip 720p | L2

Скачать autsayder-the-outsider-2018-webrip-720p-l2.torrent
U Магнитная ссылка Размер: 1.95 GB Раздают: 127 Качают: 78 Добавлен: 2018-03-13 19:20:13
Аутсайдер / The Outsider (2018) WEBRip 720p | L2

Название: Аутсайдер
Оригинальное название: The Outsider

Год выхода: 2018
Жанр: Триллер, драма, криминал, детектив
Режиссер: Мартин Зандвлиет
В ролях: Джаред Лето, Таданобу Асано, Киппэй Сина, Рори Кокрейн, Эмиль Хирш, Сиори Куцуна, Юрино, Нозоми де Ланкесэ, Кодзи Като, Сотаро Ясуда и другие
О фильме:
Япония после Второй мировой войны. Американского военнопленного освобождают благодаря помощи сокамерника, принадлежащего к якудза. Став свободным, солдат начинает завоевывать их уважение и возвращает свой долг в опасном криминальном мире.

Страна: США, Linson Entertainment
Продолжительность: 02:01:28
Перевод: Любительский (двухголосый закадровый) | HiWay Grope

Файл
Кодек: MPEG-4 AVC/H.264
Качество: WEBRip 720p
Видео: 1280x536, 24.000 fps, ~1872 kbps, 0.114 bit/pixel
Звук:
Аудио rus: AC3, 48 kHz, 6 ch, 384 Kbps
Субтитры: отсутствуют

Реклама: присутствует

Семпл

Релиз от: HiWay Grope


[+] MediaInfo:

General
Unique ID                                : 203062775459409121905425119863416382366 (0x98C477CDD97FF403B1A21B025909639E)
Complete name                            : E:The.Outsider.2018.720p.WEBRip.HiWayGropeThe.Outsider.2018.720p.WEBRip.HiWayGrope.mkv
Format                                   : Matroska
Format version                           : Version 4 / Version 2
File size                                : 1.95 GiB
Duration                                 : 2h 1mn
Overall bit rate                         : 2 302 Kbps
Encoded date                             : UTC 2018-03-13 14:06:43
Writing application                      : mkvmerge v18.0.0 ('Apricity') 64-bit
Writing library                          : libebml v1.3.5 + libmatroska v1.4.8

Video
ID                                       : 1
Format                                   : AVC
Format/Info                              : Advanced Video Codec
Format profile                           : Main@L4.1
Format settings, CABAC                   : Yes
Format settings, ReFrames                : 4 frames
Codec ID                                 : V_MPEG4/ISO/AVC
Duration                                 : 2h 1mn
Bit rate                                 : 1 872 Kbps
Width                                    : 1 280 pixels
Height                                   : 536 pixels
Display aspect ratio                     : 2.40:1
Frame rate mode                          : Constant
Frame rate                               : 24.000 fps
Color space                              : YUV
Chroma subsampling                       : 4:2:0
Bit depth                                : 8 bits
Scan type                                : Progressive
Bits/(Pixel*Frame)                       : 0.114
Stream size                              : 1.59 GiB (81%)
Language                                 : English
Default                                  : Yes
Forced                                   : No
Color range                              : Limited
Color primaries                          : BT.601 NTSC
Transfer characteristics                 : BT.601
Matrix coefficients                      : BT.601

Audio
ID                                       : 2
Format                                   : AC-3
Format/Info                              : Audio Coding 3
Mode extension                           : CM (complete main)
Format settings, Endianness              : Big
Codec ID                                 : A_AC3
Duration                                 : 2h 1mn
Bit rate mode                            : Constant
Bit rate                                 : 384 Kbps
Channel(s)                               : 6 channels
Channel positions                        : Front: L C R, Side: L R, LFE
Sampling rate                            : 48.0 KHz
Frame rate                               : 31.250 fps (1536 spf)
Compression mode                         : Lossy
Stream size                              : 334 MiB (17%)
Title                                    : rus
Language                                 : Russian
Default                                  : Yes
Forced                                   : No




Скриншоты:
[+] Всего файлов в раздаче - 1:
The.Outsider.2018.720p.WEBRip.HiWayGrope.mkv1.95 GB

Текущая раздача:
ДатаКомментарии    РазмерПиры
2018-03-13 U Аутсайдер / The Outsider (2018) WEBRip 720p | L2 1 К 1.95 GB ↑ 127 ↓ 78

Показать еще раздачи по запросу аутсайдер:
2018-06-10 U Аутсайдер / The Outsider (2018) WEBRip 720p | Jaskier 1.47 GB ↑ 44 ↓ 12
2018-06-10 U Аутсайдер / The Outsider (2018) WEBRip | Jaskier 1.43 GB ↑ 65 ↓ 24
2018-04-16 U Аутсайдер / The Outsider (2018) WEBRip 1080p | NewStudio 2.75 GB ↑ 92 ↓ 27
2018-03-20 U Аутсайдер / The Outsider (2018) WEBRip от Portablius | NewStudio 695.50 MB ↑ 138 ↓ 18
2018-03-20 U Аутсайдер / The Outsider (2018) WEBRip от Scarabey | NewStudio 1.44 GB ↑ 156 ↓ 32
2018-03-18 U Аутсайдер / The Outsider (2018) WEBRip | NewStudio 1.37 GB ↑ 181 ↓ 87
2018-03-18 U Аутсайдер / The Outsider (2018) WEBRip 720p | NewStudio 1К2.86 GB ↑ 223 ↓ 215

Отзывы
portoss
Озвучка, конечно, ни в какое сравнение с хихидоком, но всё равно тяжело смотреть, голоса какие то, как я говорил, подростково-удивлённые.

Зарегистрируйтесь чтобы добавить комментарий.
Обратная связь
Copyleft ©