↑↓Torrent.by
Поиск
Логин: Регистрация
Пароль: Восстановить пароль
Загрузка...

Джуманджи: Зов джунглей / Jumanji: Welcome to the Jungle (2017) BDRemux 1080p от ExKinoRay | iTunes

Скачать dzhumandzhi-zov-dzhungley-jumanji-welcome-to-the-jungle-2017-bdremux-1080p-ot-exkinoray-itunes.torrent
U Магнитная ссылка Размер: 23.07 GB Раздают: 149 Качают: 164 Добавлен: 2018-03-13 19:20:19
Джуманджи: Зов джунглей / Jumanji: Welcome to the Jungle (2017) BDRemux 1080p от ExKinoRay | iTunes

Название: Джуманджи: Зов джунглей
Оригинальное название: Jumanji: Welcome to the Jungle
Год выхода: 2017
Жанр: Фэнтези, боевик, комедия, приключения, семейный
Режиссер: Джейк Кэздан
В ролях: Дуэйн Джонсон, Кевин Харт, Джек Блэк, Карен Гиллан, Риз Дэрби, Бобби Каннавейл, Ник Джонас, Алекс Вулф, Сер’Дариус Блэйн, Мэдисон Исман

О фильме:
Четверо подростков оказываются внутри игры «Джуманджи». Их ждет схватка с носорогами, черными мамбами, а на каждом шагу будет подстерегать бесконечная череда ловушек и головоломок. Чтобы пройти игру и остаться в живых, им придется перевоплотиться в персонажей игры: робкий и застенчивый Спенсер превращается в отважного и сильного исследователя, здоровяк Фридж — в коротышку, модница и красавица Беттани — в профессора, а неуклюжая и нескладная Марта становится бесстрашной и ловкой амазонкой. Друзьям придется привыкнуть к совершенно новым и таким непривычным для себя ролям и найти дорогу домой.

Страна: США
Студия: Matt Tolmach Productions
Продолжительность: 01:59:03
Перевод: Дублированный | iTunes

Качество: BDRemux 1080p
Видео: MPEG-4 AVC, 1920x1080, 24.9 Мbit/s, 23.976 fps
Звук:
Аудио #01: 48 kHz, AC3, 5.1, 384 Kbps | Дублированный | iTunes | RUS |
Аудио #02: 48 kHz, AC3, 2.0, 224 Kbps | Дублированный | iTunes | UKR |
Аудио #03: 48 kHz, DTS-HD MA, 5.1, 2249 Kbps | Оригинал |  ENG |
Субтитры: Русские (forced, full), украинские (full), английские

Релиз: Автор релиза:


[+] MI
General
Unique ID                   : 331612998856122467488964985726079288898 (0xF97A57275F01D92B6F3ED987E6C74642)
Complete name               : C:Video111Jumanji.Welcome.to.the.Jungle.2017.BDREMUX.1080p.ExKinoRay.mkv
Format                      : Matroska
Format version              : Version 4 / Version 2
File size                   : 23.1 GiB
Duration                    : 1 h 59 min
Overall bit rate mode       : Variable
Overall bit rate            : 27.7 Mb/s
Movie name                  : Jumanji Welcome to the Jungle 2017 from ExKinoRay
Encoded date                : UTC 2018-03-13 05:16:12
Writing application         : mkvmerge v21.0.0 ('Tardigrades Will Inherit The Earth') 64-bit
Writing library             : libebml v1.3.5 + libmatroska v1.4.8

Video
ID                          : 1
Format                      : AVC
Format/Info                 : Advanced Video Codec
Format profile              : High@L4.1
Format settings             : CABAC / 2 Ref Frames
Format settings, CABAC      : Yes
Format settings, ReFrames   : 2 frames
Format settings, GOP        : M=1, N=10
Codec ID                    : V_MPEG4/ISO/AVC
Duration                    : 1 h 59 min
Bit rate mode               : Variable
Bit rate                    : 24.9 Mb/s
Width                       : 1 920 pixels
Height                      : 1 080 pixels
Display aspect ratio        : 16:9
Frame rate mode             : Constant
Frame rate                  : 23.976 (24000/1001) FPS
Color space                 : YUV
Chroma subsampling          : 4:2:0
Bit depth                   : 8 bits
Scan type                   : Progressive
Bits/(Pixel*Frame)          : 0.500
Stream size                 : 20.7 GiB (90%)
Language                    : English
Default                     : Yes
Forced                      : No

Audio #1
ID                          : 2
Format                      : AC-3
Format/Info                 : Audio Coding 3
Codec ID                    : A_AC3
Duration                    : 1 h 59 min
Bit rate mode               : Constant
Bit rate                    : 384 kb/s
Channel(s)                  : 6 channels
Channel positions           : Front: L C R, Side: L R, LFE
Sampling rate               : 48.0 kHz
Frame rate                  : 31.250 FPS (1536 SPF)
Bit depth                   : 16 bits
Compression mode            : Lossy
Stream size                 : 327 MiB (1%)
Title                       : iTunes
Language                    : Russian
Service kind                : Complete Main
Default                     : Yes
Forced                      : Yes

Audio #2
ID                          : 3
Format                      : AC-3
Format/Info                 : Audio Coding 3
Codec ID                    : A_AC3
Duration                    : 1 h 59 min
Bit rate mode               : Constant
Bit rate                    : 224 kb/s
Channel(s)                  : 2 channels
Channel positions           : Front: L R
Sampling rate               : 48.0 kHz
Frame rate                  : 31.250 FPS (1536 SPF)
Bit depth                   : 16 bits
Compression mode            : Lossy
Stream size                 : 191 MiB (1%)
Title                       : iTunes
Language                    : Ukrainian
Service kind                : Complete Main
Default                     : No
Forced                      : No

Audio #3
ID                          : 4
Format                      : DTS
Format/Info                 : Digital Theater Systems
Format profile              : MA / Core
Codec ID                    : A_DTS
Duration                    : 1 h 59 min
Bit rate mode               : Variable / Constant
Bit rate                    : 2 249 kb/s / 1 509 kb/s
Channel(s)                  : 6 channels
Channel positions           : Front: L C R, Side: L R, LFE
Sampling rate               : 48.0 kHz
Frame rate                  : 93.750 FPS (512 SPF)
Bit depth                   : 16 bits
Compression mode            : Lossless / Lossy
Stream size                 : 1.87 GiB (8%)
Title                       : Original
Language                    : English
Default                     : No
Forced                      : No

Text #1
ID                          : 5
Format                      : UTF-8
Codec ID                    : S_TEXT/UTF8
Codec ID/Info               : UTF-8 Plain Text
Duration                    : 1 h 55 min
Bit rate                    : 0 b/s
Count of elements           : 2
Stream size                 : 110 Bytes (0%)
Title                       : forced
Language                    : Russian
Default                     : Yes
Forced                      : Yes

Text #2
ID                          : 6
Format                      : UTF-8
Codec ID                    : S_TEXT/UTF8
Codec ID/Info               : UTF-8 Plain Text
Duration                    : 1 h 57 min
Bit rate                    : 95 b/s
Count of elements           : 1577
Stream size                 : 82.2 KiB (0%)
Title                       : full
Language                    : Russian
Default                     : No
Forced                      : No

Text #3
ID                          : 7
Format                      : UTF-8
Codec ID                    : S_TEXT/UTF8
Codec ID/Info               : UTF-8 Plain Text
Duration                    : 1 h 57 min
Bit rate                    : 76 b/s
Count of elements           : 1562
Stream size                 : 66.4 KiB (0%)
Title                       : iTunes
Language                    : Ukrainian
Default                     : No
Forced                      : No

Text #4
ID                          : 8
Format                      : UTF-8
Codec ID                    : S_TEXT/UTF8
Codec ID/Info               : UTF-8 Plain Text
Duration                    : 1 h 48 min
Bit rate                    : 63 b/s
Count of elements           : 1539
Stream size                 : 50.9 KiB (0%)
Title                       : full
Language                    : English
Default                     : No
Forced                      : No

Menu
00:00:00.000                : en:00:00:00.000
00:07:18.104                : en:00:07:18.104
00:17:15.993                : en:00:17:15.993
00:23:23.235                : en:00:23:23.235
00:29:24.972                : en:00:29:24.972
00:42:28.546                : en:00:42:28.546
00:47:11.162                : en:00:47:11.162
00:54:26.722                : en:00:54:26.722
01:03:20.839                : en:01:03:20.839
01:10:21.801                : en:01:10:21.801
01:15:51.672                : en:01:15:51.672
01:24:10.087                : en:01:24:10.087
01:28:20.295                : en:01:28:20.295
01:33:48.414                : en:01:33:48.414
01:42:22.887                : en:01:42:22.887
01:48:31.839                : en:01:48:31.839



Скриншоты:
[+] Всего файлов в раздаче - 1:
Jumanji.Welcome.to.the.Jungle.2017.BDREMUX.1080p.ExKinoRay.mkv23.07 GB

Текущая раздача:
ДатаКомментарии    РазмерПиры
2018-03-13 U Джуманджи: Зов джунглей / Jumanji: Welcome to the Jungle (2017) BDRemux 1080p от ExKinoRay | iTunes 23.07 GB ↑ 149 ↓ 164

Показать еще раздачи по запросу джуманджи:
2018-04-22 U Джуманджи: Зов джунглей / Jumanji: Welcome to the Jungle (2017) HDRip от Scarabey | Лицензия 1.45 GB ↑ 3443 ↓ 91
2018-04-22 U Джуманджи: Зов джунглей / Jumanji: Welcome to the Jungle (2017) BDRip 720p от Scarabey | Лицензия 4.23 GB ↑ 125 ↓ 24
2018-04-22 U Джуманджи: Зов джунглей / Jumanji: Welcome to the Jungle (2017) BDRip 1080p | Лицензия 14.70 GB ↑ 46 ↓ 12
2018-04-21 U Джуманджи: Зов джунглей / Jumanji: Welcome to the Jungle (2017) BDRip 1080p от Ash61 | 3D-Video | halfOU | Лицензия 11.23 GB ↑ 51 ↓ 27
2018-04-20 U Джуманджи: Зов джунглей / Jumanji: Welcome to the Jungle (2017) BDRip от MegaPeer | Лицензия 2.18 GB ↑ 71 ↓ 36
2018-04-20 U Джуманджи: Зов джунглей / Jumanji: Welcome to the Jungle (2017) BDRip от ExKinoRay | Лицензия 1К1.46 GB ↑ 5 ↓ 158
2018-04-20 U Джуманджи: Зов джунглей / Jumanji: Welcome to the Jungle (2017) BDRip 720p от HELLYWOOD | Лицензия 4.69 GB ↑ 129 ↓ 51

Отзывы
Зарегистрируйтесь чтобы добавить комментарий.
Обратная связь
Copyleft ©