↑↓Torrent.by
Поиск
Логин: Регистрация
Пароль: Восстановить пароль
Загрузка...

Карп отмороженный (2017) BDRip 1080p | Лицензия

Скачать karp-otmorozhennyy-2017-bdrip-1080p-licenziya.torrent
U Магнитная ссылка Размер: 9.17 GB Раздают: 81 Качают: 42 Добавлен: 2018-03-14 08:56:43
Карп отмороженный (2017) BDRip 1080p | Лицензия

Название: Карп отмороженный
Год выхода: 2017
Жанр: Комедия, драма
Страна: Россия
Студия: ООО "КиноКластер"
Перевод: Не требуется
Продолжительность: 01:39:36
Режиссер: Владимир Котт
В ролях: Марина Неёлова, Алиса Фрейндлих, Евгений Миронов, Сергей Пускепалис, Александр Баширов, Наталья Суркова, Татьяна Рассказова, Антон Шпиньков, Артем Лещик, Анна Екатерининская и др.

О фильме: Елена Михайловна скромно живёт на пенсии в провинциальном городке. Неожиданно для себя она узнаёт о смертельном диагнозе, который может в любой момент оборвать её жизнь. Чтобы лишний раз не тревожить любимого, но постоянно занятого сына, работающего в большом городе бизнес-тренером, и избавить его от потенциальных забот, Елена Михайловна берет дело в свои руки и принимается активно хлопотать над организацией собственных похорон.

Файл
Качество: BDRip 1080p
Видео: MPEG-4 AVC, 1920x1036 (1,85:1), 11000 kbps, 24,000 fps
Звук#1: Русский, AC3, 6 ch, 48 kHz, 640 kbps
Звук#2: Русский, DTS, 6ch, 48 kHz, 1536 kbps
[+] MI
Общее
Уникальный идентификатор                 : 224968196203821801406292815283079151087 (0xA93F4C6E73DB086BA9D93C862CF4FDEF)
Полное имя                               : E:UttorentKarpBDRip1080p.mkv
Формат                                   : Matroska
Версия формата                           : Version 4 / Version 2
Размер файла                             : 9,17 Гбайт
Продолжительность                        : 1 ч. 39 м.
Общий поток                              : 13,2 Мбит/сек
Дата кодирования                         : UTC 2018-03-13 12:38:54
Программа кодирования                    : mkvmerge v9.5.0 ('Quiet Fire') 64bit
Библиотека кодирования                   : libebml v1.3.4 + libmatroska v1.4.5

Видео
Идентификатор                            : 1
Формат                                   : AVC
Формат/Информация                        : Advanced Video Codec
Профиль формата                          : High@L4.1
Настройки формата                        : CABAC / 4 Ref Frames
Параметр CABAC формата                   : Да
Параметр RefFrames формата               : 4 кадра
Идентификатор кодека                     : V_MPEG4/ISO/AVC
Продолжительность                        : 1 ч. 39 м.
Битрейт                                  : 11,0 Мбит/сек
Ширина                                   : 1920 пикселей
Высота                                   : 1036 пикселей
Соотношение сторон                       : 1,85:1
Режим частоты кадров                     : Постоянный
Частота кадров                           : 24,000 кадра/сек
Цветовое пространство                    : YUV
Субдискретизация насыщенности            : 4:2:0
Битовая глубина                          : 8 бит
Тип развёртки                            : Прогрессивная
Бит/(Пиксели*Кадры)                      : 0.230
Размер потока                            : 7,65 Гбайт (83%)
Библиотека кодирования                   : x264 core 128 r2216M 198a7ea
Настройки программы                      : cabac=1 / ref=5 / deblock=1:-3:-3 / analyse=0x3:0x133 / me=umh / subme=11 / psy=1 / psy_rd=1.00:0.15 / mixed_ref=1 / me_range=32 / chroma_me=1 / trellis=2 / 8x8dct=1 / cqm=0 / deadzone=21,11 / fast_pskip=1 / chroma_qp_offset=-3 / threads=8 / lookahead_threads=1 / sliced_threads=0 / nr=0 / decimate=0 / interlaced=0 / bluray_compat=0 / constrained_intra=0 / bframes=8 / b_pyramid=1 / b_adapt=2 / b_bias=0 / direct=3 / weightb=1 / open_gop=0 / weightp=2 / keyint=240 / keyint_min=24 / scenecut=40 / intra_refresh=0 / rc_lookahead=40 / rc=2pass / mbtree=1 / bitrate=11000 / ratetol=1.0 / qcomp=0.80 / qpmin=10 / qpmax=69 / qpstep=4 / cplxblur=20.0 / qblur=0.5 / ip_ratio=1.10 / aq=1:1.00
Default                                  : Да
Forced                                   : Нет

Аудио #1
Идентификатор                            : 2
Формат                                   : AC-3
Формат/Информация                        : Audio Coding 3
Параметр Endianness формата              : Big
Идентификатор кодека                     : A_AC3
Продолжительность                        : 1 ч. 39 м.
Вид битрейта                             : Постоянный
Битрейт                                  : 640 Кбит/сек
Каналы                                   : 6 каналов
Расположение каналов                     : Front: L C R, Side: L R, LFE
Частота                                  : 48,0 КГц
Частота кадров                           : 31,250 кадров/сек (1536 SPF)
Битовая глубина                          : 16 бит
Метод сжатия                             : С потерями
Размер потока                            : 456 Мбайт (5%)
Default                                  : Да
Forced                                   : Нет

Аудио #2
Идентификатор                            : 3
Формат                                   : DTS
Формат/Информация                        : Digital Theater Systems
Режим                                    : 16
Параметр Endianness формата              : Big
Идентификатор кодека                     : A_DTS
Продолжительность                        : 1 ч. 39 м.
Вид битрейта                             : Постоянный
Битрейт                                  : 1536 Кбит/сек
Каналы                                   : 6 каналов
Расположение каналов                     : Front: L C R, Side: L R, LFE
Частота                                  : 48,0 КГц
Частота кадров                           : 93,750 кадра/сек (512 SPF)
Битовая глубина                          : 16 бит
Метод сжатия                             : С потерями
Размер потока                            : 1,07 Гбайт (12%)
Default                                  : Нет
Forced                                   : Нет



Скриншоты:
[+] Всего файлов в раздаче - 1:
KarpBDRip1080p.mkv9.17 GB

Текущая раздача:
ДатаКомментарии    РазмерПиры
2018-03-14 U Карп отмороженный (2017) BDRip 1080p | Лицензия 9.17 GB ↑ 81 ↓ 42

Показать еще раздачи по запросу карп:
2018-03-25 U Карп отмороженный (2017) BDRip от ExKinoRay | Лицензия 1.46 GB ↑ 129 ↓ 38
2018-03-22 U Карп отмороженный (2017) BDRip от MegaPeer | Лицензия 1К1.46 GB ↑ 107 ↓ 29
2018-03-18 U Карп отмороженный (2017) HDRip от Scarabey | Лицензия 1.45 GB ↑ 93 ↓ 25
2018-03-14 U Карп отмороженный (2017) HDRip от MegaPeer | Лицензия 746.92 MB ↑ 50 ↓ 15
2018-03-14 U Карп отмороженный (2017) BDRip 720p | Лицензия 5.69 GB ↑ 90 ↓ 35
2018-03-14 U Карп отмороженный (2017) HDRip | Лицензия 1.46 GB ↑ 91 ↓ 69
2018-02-22 U Карп отмороженный (2017) WEB-DLRip от Scarabey | iTunes 1К1.45 GB ↑ 116 ↓ 29

Отзывы
Зарегистрируйтесь чтобы добавить комментарий.
Обратная связь
Copyleft ©