↑↓Torrent.by
Поиск
Логин: Регистрация
Пароль: Восстановить пароль
Загрузка...

Фердинанд / Ferdinand (2017) BDRip 720p от ExKinoRay | Лицензия

Скачать ferdinand-2017-bdrip-720p-ot-exkinoray-licenziya.torrent
U Магнитная ссылка Размер: 6.02 GB Раздают: 468 Качают: 278 Добавлен: 2018-03-16 08:41:01
Фердинанд / Ferdinand (2017) BDRip 720p от ExKinoRay | Лицензия

Название: Фердинанд
Оригинальное название: Ferdinand
Год выхода: 2017
Жанр: Семейный, комедия, мультфильм
Режиссер:
В ролях:

О фильме:
Фердинанд — самый добродушный бык во всей Испании. Несмотря на внушительные размеры и недюжинную силу, он с детства предпочитал сидеть на лужайке и любоваться цветами вместо того, чтобы бодаться с другими быками. По нелепой случайности Фердинанд был выбран среди других соплеменников для участия в бое быков в Мадриде.

Страна: США
Студия: Blue Sky Studios, Davis Entertainment, Twentieth Century Fox Animation
Продолжительность: 01:48:05
Перевод: Дублированный | Лицензия

Качество: BDRip 720p
Видео: MPEG-4 AVC, 1280x536, 4800 Kbit/s, 23.976 fps
Звук:
Аудио #01: 48 kHz, DTS, 5.1, 768 Kbps | Дублированный | RUS |
Аудио #02: 48 kHz, AC3, 5.1, 448 Kbps | Дублированный | RUS |
Аудио #03: 48 kHz, AC3, 5.1, 448 Kbps | Дублированный | iTunes | UKR |
Аудио #04: 48 kHz, DTS, 5.1, 1510 Kbps | Оригинал |  ENG |
Субтитры: Русские, английские

Релиз: Автор релиза:


[+] MI
General
Unique ID                   : 218024714066576656406579088480500137566 (0xA4060854C929968C26EC142228533E5E)
Complete name               : C:Video111Ferdinand.2017.BDRip.720p.ExKinoRay.mkv
Format                      : Matroska
Format version              : Version 4 / Version 2
File size                   : 6.02 GiB
Duration                    : 1 h 48 min
Overall bit rate            : 7 971 kb/s
Movie name                  : Ferdinand 2017 from ExKinoRay
Encoded date                : UTC 2018-03-15 17:25:27
Writing application         : mkvmerge v21.0.0 ('Tardigrades Will Inherit The Earth') 64-bit
Writing library             : libebml v1.3.5 + libmatroska v1.4.8

Video
ID                          : 1
Format                      : AVC
Format/Info                 : Advanced Video Codec
Format profile              : High@L4.1
Format settings             : CABAC / 12 Ref Frames
Format settings, CABAC      : Yes
Format settings, ReFrames   : 12 frames
Codec ID                    : V_MPEG4/ISO/AVC
Duration                    : 1 h 48 min
Bit rate                    : 4 800 kb/s
Width                       : 1 280 pixels
Height                      : 536 pixels
Display aspect ratio        : 2.40:1
Frame rate mode             : Constant
Frame rate                  : 23.976 (24000/1001) FPS
Color space                 : YUV
Chroma subsampling          : 4:2:0
Bit depth                   : 8 bits
Scan type                   : Progressive
Bits/(Pixel*Frame)          : 0.292
Stream size                 : 3.62 GiB (60%)
Writing library             : x264 core 130 r2273 b3065e6
Encoding settings           : cabac=1 / ref=12 / deblock=1:-1:-1 / analyse=0x3:0x113 / me=umh / subme=11 / psy=1 / psy_rd=1.00:0.05 / mixed_ref=1 / me_range=32 / chroma_me=1 / trellis=2 / 8x8dct=1 / cqm=0 / deadzone=21,11 / fast_pskip=0 / chroma_qp_offset=-5 / threads=12 / lookahead_threads=2 / sliced_threads=0 / nr=0 / decimate=0 / interlaced=0 / bluray_compat=0 / constrained_intra=0 / bframes=8 / b_pyramid=2 / b_adapt=2 / b_bias=0 / direct=3 / weightb=1 / open_gop=0 / weightp=2 / keyint=250 / keyint_min=23 / scenecut=40 / intra_refresh=0 / rc_lookahead=80 / rc=2pass / mbtree=1 / bitrate=4800 / ratetol=1.0 / qcomp=0.60 / qpmin=0 / qpmax=69 / qpstep=4 / cplxblur=20.0 / qblur=0.5 / ip_ratio=1.40 / aq=1:0.60
Language                    : English
Default                     : Yes
Forced                      : No

Audio #1
ID                          : 2
Format                      : DTS
Format/Info                 : Digital Theater Systems
Codec ID                    : A_DTS
Duration                    : 1 h 48 min
Bit rate mode               : Constant
Bit rate                    : 768 kb/s
Channel(s)                  : 6 channels
Channel positions           : Front: L C R, Side: L R, LFE
Sampling rate               : 48.0 kHz
Frame rate                  : 93.750 FPS (512 SPF)
Bit depth                   : 24 bits
Compression mode            : Lossy
Stream size                 : 594 MiB (10%)
Title                       : Dub [License]
Language                    : Russian
Default                     : Yes
Forced                      : Yes

Audio #2
ID                          : 3
Format                      : AC-3
Format/Info                 : Audio Coding 3
Codec ID                    : A_AC3
Duration                    : 1 h 48 min
Bit rate mode               : Constant
Bit rate                    : 448 kb/s
Channel(s)                  : 6 channels
Channel positions           : Front: L C R, Side: L R, LFE
Sampling rate               : 48.0 kHz
Frame rate                  : 31.250 FPS (1536 SPF)
Bit depth                   : 16 bits
Compression mode            : Lossy
Stream size                 : 347 MiB (6%)
Title                       : Dub [License]
Language                    : Russian
Service kind                : Complete Main
Default                     : No
Forced                      : No

Audio #3
ID                          : 4
Format                      : AC-3
Format/Info                 : Audio Coding 3
Codec ID                    : A_AC3
Duration                    : 1 h 48 min
Bit rate mode               : Constant
Bit rate                    : 448 kb/s
Channel(s)                  : 6 channels
Channel positions           : Front: L C R, Side: L R, LFE
Sampling rate               : 48.0 kHz
Frame rate                  : 31.250 FPS (1536 SPF)
Bit depth                   : 16 bits
Compression mode            : Lossy
Stream size                 : 347 MiB (6%)
Title                       : Dub [License]
Language                    : Ukrainian
Service kind                : Complete Main
Default                     : No
Forced                      : No

Audio #4
ID                          : 5
Format                      : DTS
Format/Info                 : Digital Theater Systems
Codec ID                    : A_DTS
Duration                    : 1 h 48 min
Bit rate mode               : Constant
Bit rate                    : 1 509 kb/s
Channel(s)                  : 6 channels
Channel positions           : Front: L C R, Side: L R, LFE
Sampling rate               : 48.0 kHz
Frame rate                  : 93.750 FPS (512 SPF)
Bit depth                   : 24 bits
Compression mode            : Lossy
Stream size                 : 1.14 GiB (19%)
Title                       : Original
Language                    : English
Default                     : No
Forced                      : No

Text #1
ID                          : 6
Format                      : UTF-8
Codec ID                    : S_TEXT/UTF8
Codec ID/Info               : UTF-8 Plain Text
Duration                    : 1 h 46 min
Bit rate                    : 53 b/s
Count of elements           : 1147
Stream size                 : 41.6 KiB (0%)
Title                       : Full
Language                    : Russian
Default                     : No
Forced                      : No

Text #2
ID                          : 7
Format                      : UTF-8
Codec ID                    : S_TEXT/UTF8
Codec ID/Info               : UTF-8 Plain Text
Duration                    : 1 h 35 min
Bit rate                    : 45 b/s
Count of elements           : 1237
Stream size                 : 32.1 KiB (0%)
Title                       : Full
Language                    : English
Default                     : No
Forced                      : No

Text #3
ID                          : 8
Format                      : UTF-8
Codec ID                    : S_TEXT/UTF8
Codec ID/Info               : UTF-8 Plain Text
Duration                    : 1 h 43 min
Bit rate                    : 58 b/s
Count of elements           : 1812
Stream size                 : 43.9 KiB (0%)
Title                       : SDH
Language                    : English
Default                     : No
Forced                      : No

Menu
00:00:00.000                : en:00:00:00.000
00:05:20.028                : en:00:05:20.028
00:10:17.951                : en:00:10:17.951
00:13:59.589                : en:00:13:59.589
00:22:33.060                : en:00:22:33.060
00:29:23.178                : en:00:29:23.178
00:37:09.519                : en:00:37:09.519
00:41:04.587                : en:00:41:04.587
00:48:26.904                : en:00:48:26.904
00:56:16.498                : en:00:56:16.498
01:02:38.463                : en:01:02:38.463
01:10:57.003                : en:01:10:57.003
01:18:41.467                : en:01:18:41.467
01:24:05.791                : en:01:24:05.791
01:30:25.629                : en:01:30:25.629
01:35:58.753                : en:01:35:58.753
01:39:33.968                : en:01:39:33.968
01:45:20.105                : en:01:45:20.105
01:52:55.227                : en:01:52:55.227
01:59:45.011                : en:01:59:45.011



Скриншоты:
[+] Всего файлов в раздаче - 1:
Ferdinand.2017.BDRip.720p.ExKinoRay.mkv6.02 GB

Текущая раздача:
ДатаКомментарии    РазмерПиры
2018-03-16 U Фердинанд / Ferdinand (2017) BDRip 720p от ExKinoRay | Лицензия 6.02 GB ↑ 468 ↓ 278

Показать еще раздачи по запросу фердинанд:
2018-04-08 U Фердинанд / Ferdinand (2017) BDRip-HEVC 1080p | 60 fps | Лицензия 5.82 GB ↑ 54 ↓ 29
2018-03-21 U Фердинанд / Ferdinand (2017) BDRip 1080p от Heisenberg & NNMClub | Лицензия 4.37 GB ↑ 82 ↓ 32
2018-03-20 U Фердинанд / Ferdinand (2017) BDRip 720p от Scarabey | Лицензия 3.76 GB ↑ 138 ↓ 25
2018-03-19 U Фердинанд / Ferdinand (2017) BDRip от ExKinoRay | Лицензия 2.18 GB ↑ 112 ↓ 27
2018-03-18 U Фердинанд / Ferdinand (2017) HDRip от Scarabey | Лицензия 745.36 MB ↑ 146 ↓ 27
2018-03-18 U Фердинанд / Ferdinand (2017) HDRip от Scarabey | Лицензия 1.45 GB ↑ 95 ↓ 40
2018-03-17 U Фердинанд / Ferdinand (2017) BDRip-HEVC 1080p от M@kSIMus 4.31 GB ↑ 67 ↓ 29

Отзывы
Зарегистрируйтесь чтобы добавить комментарий.
Обратная связь
Copyleft ©