↑↓Torrent.by
Поиск
Логин: Регистрация
Пароль: Восстановить пароль
Загрузка...

Фердинанд / Ferdinand (2017) BDRemux 1080p от ExKinoRay | Лицензия

Скачать ferdinand-2017-bdremux-1080p-ot-exkinoray-licenziya.torrent
U Магнитная ссылка Размер: 24.79 GB Раздают: 44 Качают: 61 Добавлен: 2018-03-16 13:14:25
Фердинанд / Ferdinand (2017) BDRemux 1080p от ExKinoRay | Лицензия

Фердинанд
Ferdinand

Название: Фердинанд
Оригинальное название: Ferdinand
Год выпуска: 2017
Жанр:  Семейный, комедия, мультфильм
Выпущено: США, Blue Sky Studios, Davis Entertainment, Twentieth Century Fox Animation
Режиссер: Карлос Салдана
В ролях: Джон Сина, Кейт МакКиннон, Дэвид Теннант, Бобби Каннавейл, Энтони Андерсон, Джек Гор, Джет Юргенсмейер, Найл Диас, Колин Х. Мерфи, Карлос Салдана

Описание:
Фердинанд — самый добродушный бык во всей Испании. Несмотря на внушительные размеры и недюжинную силу, он с детства предпочитал сидеть на лужайке и любоваться цветами вместо того, чтобы бодаться с другими быками. По нелепой случайности Фердинанд был выбран среди других соплеменников для участия в бое быков в Мадриде.

Страна: США
Студия: Matt Tolmach Productions
Продолжительность: 01:59:03
Перевод: Дублированный | Лицензия

Файл
Контейнер: MKV
Качество: BDRemux 1080p

Видео: MPEG-4 AVC, 25977 Kбит/с, 1920x1080
Аудио #1: DTS, 48.0 kHz, 6 ch, 768 kb/s, CBR (Russian)
Аудио #2: AC-3, 48.0 kHz, 6 ch, 448 kb/s, CBR (Ukrainian)
Аудио #3: DTS MA / Core, 48.0 kHz, 8 / 6 ch, 4 626 kb/s / 1 509 kb/s, VBR / CBR (English)
Аудио #4: AC-3, 48.0 kHz, 6 ch, 640 kb/s, CBR (English)
Аудио #5: AC-3, 48.0 kHz, 6 ch, 448 kb/s, CBR (English)

Субтитры: Russian (Full), Ukrainian (Full), English (Full, SDH )

Релиз: Автор релиза:  Ivantsov


[+] МI

Общее
Уникальный идентификатор                 : 230463817638539998266116781273428668442 (0xAD61B77CD934C79E8A3114294BCA301A)
Полное имя                               : Ferdinand.2017.1080p.BDREMUX.IVA(RUS.UKR.ENG).ExKinoRay.mkv
Формат                                   : Matroska
Версия формата                           : Version 4 / Version 2
Размер файла                             : 24,8 Гбайт
Продолжительность                        : 1 ч. 48 м.
Режим общего битрейта                    : Переменный
Общий поток                              : 32,8 Мбит/сек
Название фильма                          : Ferdinand.2017.1080p.BDREMUX.IVA(RUS.UKR.ENG).ExKinoRay
Дата кодирования                         : UTC 2018-03-15 18:01:19
Программа кодирования                    : mkvmerge v21.0.0 ('Tardigrades Will Inherit The Earth') 64-bit
Библиотека кодирования                   : libebml v1.3.5 + libmatroska v1.4.8
Обложка                                  : Yes

Видео
Идентификатор                            : 1
Формат                                   : AVC
Формат/Информация                        : Advanced Video Codec
Профиль формата                          : High@L4.1
Настройки формата                        : CABAC / 4 Ref Frames
Параметр CABAC формата                   : Да
Параметр RefFrames формата               : 4 кадра
Идентификатор кодека                     : V_MPEG4/ISO/AVC
Продолжительность                        : 1 ч. 48 м.
Вид битрейта                             : Переменный
Битрейт                                  : 25,8 Мбит/сек
Максимальный битрейт                     : 29,0 Мбит/сек
Ширина                                   : 1920 пикселей
Высота                                   : 1080 пикселей
Соотношение сторон                       : 16:9
Режим частоты кадров                     : Постоянный
Частота кадров                           : 23,976 (24000/1001) кадра/сек
Цветовое пространство                    : YUV
Субдискретизация насыщенности            : 4:2:0
Битовая глубина                          : 8 бит
Тип развёртки                            : Прогрессивная
Бит/(Пиксели*Кадры)                      : 0.519
Размер потока                            : 19,5 Гбайт (79%)
Заголовок                                : Ferdinand.2017.1080p.BDREMUX
Язык                                     : English
Default                                  : Да
Forced                                   : Нет

Аудио #1
Идентификатор                            : 2
Формат                                   : DTS
Формат/Информация                        : Digital Theater Systems
Идентификатор кодека                     : A_DTS
Продолжительность                        : 1 ч. 48 м.
Вид битрейта                             : Постоянный
Битрейт                                  : 768 Кбит/сек
Каналы                                   : 6 каналов
Расположение каналов                     : Front: L C R, Side: L R, LFE
Частота                                  : 48,0 КГц
Частота кадров                           : 93,750 кадра/сек (512 SPF)
Битовая глубина                          : 24 бит
Метод сжатия                             : С потерями
Размер потока                            : 594 Мбайт (2%)
Заголовок                                : | Дублированный |
Язык                                     : Russian
Default                                  : Да
Forced                                   : Нет

Аудио #2
Идентификатор                            : 3
Формат                                   : AC-3
Формат/Информация                        : Audio Coding 3
Идентификатор кодека                     : A_AC3
Продолжительность                        : 1 ч. 48 м.
Вид битрейта                             : Постоянный
Битрейт                                  : 448 Кбит/сек
Каналы                                   : 6 каналов
Расположение каналов                     : Front: L C R, Side: L R, LFE
Частота                                  : 48,0 КГц
Частота кадров                           : 31,250 кадров/сек (1536 SPF)
Битовая глубина                          : 16 бит
Метод сжатия                             : С потерями
Размер потока                            : 347 Мбайт (1%)
Заголовок                                : | Дублированный |
Язык                                     : Ukrainian
ServiceKind                              : Complete Main
Default                                  : Нет
Forced                                   : Нет

Аудио #3
Идентификатор                            : 4
Формат                                   : DTS
Формат/Информация                        : Digital Theater Systems
Профиль формата                          : MA / Core
Идентификатор кодека                     : A_DTS
Продолжительность                        : 1 ч. 48 м.
Вид битрейта                             : Переменный / Постоянный
Битрейт                                  : 4626 Кбит/сек / 1509 Кбит/сек
Каналы                                   : 8 каналов / 6 каналов
Расположение каналов                     : Front: L C R, Side: L R, Back: L R, LFE / Front: L C R, Side: L R, LFE
Частота                                  : 48,0 КГц
Частота кадров                           : 93,750 кадра/сек (512 SPF)
Битовая глубина                          : 24 бит
Метод сжатия                             : Без потерь / Lossy
Размер потока                            : 3,50 Гбайт (14%)
Заголовок                                : | Original |
Язык                                     : English
Default                                  : Нет
Forced                                   : Нет

Аудио #4
Идентификатор                            : 5
Формат                                   : AC-3
Формат/Информация                        : Audio Coding 3
Идентификатор кодека                     : A_AC3
Продолжительность                        : 1 ч. 48 м.
Вид битрейта                             : Постоянный
Битрейт                                  : 640 Кбит/сек
Каналы                                   : 6 каналов
Расположение каналов                     : Front: L C R, Side: L R, LFE
Частота                                  : 48,0 КГц
Частота кадров                           : 31,250 кадров/сек (1536 SPF)
Битовая глубина                          : 16 бит
Метод сжатия                             : С потерями
Задержка видео                           : 32 мс.
Размер потока                            : 495 Мбайт (2%)
Заголовок                                : | Original |
Язык                                     : English
ServiceKind                              : Complete Main
Default                                  : Нет
Forced                                   : Нет

Аудио #5
Идентификатор                            : 6
Формат                                   : AC-3
Формат/Информация                        : Audio Coding 3
Идентификатор кодека                     : A_AC3
Продолжительность                        : 1 ч. 48 м.
Вид битрейта                             : Постоянный
Битрейт                                  : 448 Кбит/сек
Каналы                                   : 6 каналов
Расположение каналов                     : Front: L C R, Side: L R, LFE
Частота                                  : 48,0 КГц
Частота кадров                           : 31,250 кадров/сек (1536 SPF)
Битовая глубина                          : 16 бит
Метод сжатия                             : С потерями
Размер потока                            : 346 Мбайт (1%)
Заголовок                                : | Audiodeion |
Язык                                     : English
ServiceKind                              : Complete Main
Default                                  : Нет
Forced                                   : Нет

Текст #1
Идентификатор                            : 7
Формат                                   : UTF-8
Идентификатор кодека                     : S_TEXT/UTF8
Идентификатор кодека/Информация          : UTF-8 Plain Text
Продолжительность                        : 1 ч. 46 м.
Битрейт                                  : 53 бит/сек
ElementCount                             : 1147
Размер потока                            : 41,6 Кбайт (0%)
Заголовок                                : Full
Язык                                     : Russian
Default                                  : Нет
Forced                                   : Нет

Текст #2
Идентификатор                            : 8
Формат                                   : UTF-8
Идентификатор кодека                     : S_TEXT/UTF8
Идентификатор кодека/Информация          : UTF-8 Plain Text
Продолжительность                        : 1 ч. 46 м.
Битрейт                                  : 70 бит/сек
ElementCount                             : 1152
Размер потока                            : 54,8 Кбайт (0%)
Заголовок                                : Full
Язык                                     : Ukrainian
Default                                  : Нет
Forced                                   : Нет

Текст #3
Идентификатор                            : 9
Формат                                   : UTF-8
Идентификатор кодека                     : S_TEXT/UTF8
Идентификатор кодека/Информация          : UTF-8 Plain Text
Продолжительность                        : 1 ч. 35 м.
Битрейт                                  : 45 бит/сек
ElementCount                             : 1237
Размер потока                            : 32,1 Кбайт (0%)
Заголовок                                : Full
Язык                                     : English
Default                                  : Нет
Forced                                   : Нет

Текст #4
Идентификатор                            : 10
Формат                                   : UTF-8
Идентификатор кодека                     : S_TEXT/UTF8
Идентификатор кодека/Информация          : UTF-8 Plain Text
Продолжительность                        : 1 ч. 43 м.
Битрейт                                  : 58 бит/сек
ElementCount                             : 1812
Размер потока                            : 43,9 Кбайт (0%)
Заголовок                                : SDH
Язык                                     : English
Default                                  : Нет
Forced                                   : Нет

Текст #5
Идентификатор                            : 11
Формат                                   : PGS
Идентификатор кодека                     : S_HDMV/PGS
Идентификатор кодека/Информация          : Picture based subtitle format used on BDs/HD-DVDs
Продолжительность                        : 1 ч. 46 м.
Битрейт                                  : 24,7 Кбит/сек
ElementCount                             : 2310
Размер потока                            : 18,8 Мбайт (0%)
Заголовок                                : Full
Язык                                     : Russian
Default                                  : Нет
Forced                                   : Нет

Текст #6
Идентификатор                            : 12
Формат                                   : PGS
Идентификатор кодека                     : S_HDMV/PGS
Идентификатор кодека/Информация          : Picture based subtitle format used on BDs/HD-DVDs
Продолжительность                        : 1 ч. 46 м.
Битрейт                                  : 26,3 Кбит/сек
ElementCount                             : 2304
Размер потока                            : 20,1 Мбайт (0%)
Заголовок                                : Full
Язык                                     : Ukrainian
Default                                  : Нет
Forced                                   : Нет

Текст #7
Идентификатор                            : 13
Формат                                   : PGS
Идентификатор кодека                     : S_HDMV/PGS
Идентификатор кодека/Информация          : Picture based subtitle format used on BDs/HD-DVDs
Продолжительность                        : 1 ч. 43 м.
Битрейт                                  : 40,2 Кбит/сек
ElementCount                             : 3660
Размер потока                            : 29,6 Мбайт (0%)
Заголовок                                : SDH
Язык                                     : English
Default                                  : Нет
Forced                                   : Нет

Меню
00:00:00.000                             : en:Chapter 1
00:03:37.800                             : en:Chapter 2
00:08:10.281                             : en:Chapter 3
00:11:51.460                             : en:Chapter 4
00:16:23.524                             : en:Chapter 5
00:24:14.870                             : en:Chapter 6
00:28:30.458                             : en:Chapter 7
00:34:03.124                             : en:Chapter 8
00:37:53.187                             : en:Chapter 9
00:40:54.160                             : en:Chapter 10
00:44:55.359                             : en:Chapter 11
00:49:15.994                             : en:Chapter 12
00:53:27.245                             : en:Chapter 13
00:59:40.952                             : en:Chapter 14
01:03:20.671                             : en:Chapter 15
01:06:23.270                             : en:Chapter 16
01:09:19.822                             : en:Chapter 17
01:12:18.917                             : en:Chapter 18
01:17:33.940                             : en:Chapter 19
01:20:55.058                             : en:Chapter 20
01:25:33.837                             : en:Chapter 21
01:30:38.391                             : en:Chapter 22
01:36:01.839                             : en:Chapter 23
01:38:01.166                             : en:Chapter 24



Скриншоты:
[+] Всего файлов в раздаче - 1:
Ferdinand.2017.1080p.BDREMUX.IVA(RUS.UKR.ENG).ExKinoRay.mkv24.79 GB

Текущая раздача:
ДатаКомментарии    РазмерПиры
2018-03-16 U Фердинанд / Ferdinand (2017) BDRemux 1080p от ExKinoRay | Лицензия 24.79 GB ↑ 44 ↓ 61

Показать еще раздачи по запросу фердинанд:
2018-04-08 U Фердинанд / Ferdinand (2017) BDRip-HEVC 1080p | 60 fps | Лицензия 5.82 GB ↑ 54 ↓ 29
2018-03-21 U Фердинанд / Ferdinand (2017) BDRip 1080p от Heisenberg & NNMClub | Лицензия 4.37 GB ↑ 81 ↓ 32
2018-03-20 U Фердинанд / Ferdinand (2017) BDRip 720p от Scarabey | Лицензия 3.76 GB ↑ 135 ↓ 25
2018-03-19 U Фердинанд / Ferdinand (2017) BDRip от ExKinoRay | Лицензия 2.18 GB ↑ 112 ↓ 27
2018-03-18 U Фердинанд / Ferdinand (2017) HDRip от Scarabey | Лицензия 745.36 MB ↑ 146 ↓ 27
2018-03-18 U Фердинанд / Ferdinand (2017) HDRip от Scarabey | Лицензия 1.45 GB ↑ 96 ↓ 39
2018-03-17 U Фердинанд / Ferdinand (2017) BDRip-HEVC 1080p от M@kSIMus 4.31 GB ↑ 67 ↓ 29

Отзывы
Зарегистрируйтесь чтобы добавить комментарий.
Обратная связь
Copyleft ©