↑↓Torrent.by
Поиск
Логин: Регистрация
Пароль: Восстановить пароль
Загрузка...

Фердинанд / Ferdinand (2017) BDRip 1080p от qqss44 & MegaPeer | Лицензия

Скачать ferdinand-2017-bdrip-1080p-ot-qqss44-megapeer-licenziya.torrent
U Магнитная ссылка Размер: 5.72 GB Раздают: 174 Качают: 150 Добавлен: 2018-03-16 16:03:08
Фердинанд / Ferdinand (2017) BDRip 1080p от qqss44 & MegaPeer | Лицензия

Информация о фильме
Название: Фердинанд
Оригинальное название: Ferdinand
Год выпуска: 2017
Жанр: Семейный, комедия, мультфильм
Режиссер: Карлос Салдана
В ролях: Джон Сина, Кейт МакКиннон, Дэвид Теннант, Бобби Каннавейл, Энтони Андерсон, Джек Гор, Джет Юргенсмейер, Найл Диас, Колин Х. Мерфи, Карлос Салдана

О фильме:
Фердинанд — самый добродушный бык во всей Испании. Несмотря на внушительные размеры и недюжинную силу, он с детства предпочитал сидеть на лужайке и любоваться цветами вместо того, чтобы бодаться с другими быками. По нелепой случайности Фердинанд был выбран среди других соплеменников для участия в бое быков в Мадриде.

Страна: США
Студия: Blue Sky Studios, Davis Entertainment, Twentieth Century Fox Animation
Продолжительность: 01:48:05
Перевод: Дублированный | Лицензия BD EUR

Файл
Формат: MKV, BDRip 1080p
Видео: MPEG-4 AVC, 7122 Кбит/с, 1920x804
Aудио#1: [RUS] AC3 | 48 KHz | 5.1 (Front: L С R Side: L R) + LFE | ~448 kbps
Субтитры: русские (форсированные и полные)
Релиз от:


[+] МИ

Общее
Уникальный идентификатор                 : 187748576029066060470818286461356366556 (0x8D3F0F7A3E718D59BB69288AC6C05ADC)
Полное имя                               : H:Ferdinand.(2017).MegaPeer.(qqss44).mkv
Формат                                   : Matroska
Версия формата                           : Version 2
Размер файла                             : 5,72 Гбайт
Продолжительность                        : 1 ч. 48 м.
Общий поток                              : 7564 Кбит/сек
Название фильма                          : Ferdinand.(2017).MegaPeer.(qqss44)
Дата кодирования                         : UTC 2018-03-16 10:01:51
Программа кодирования                    : mkvmerge v5.8.0 ('No Sleep / Pillow') built on Sep  2 2012 15:37:04
Библиотека кодирования                   : libebml v1.2.3 + libmatroska v1.3.0

Видео
Идентификатор                            : 1
Формат                                   : AVC
Формат/Информация                        : Advanced Video Codec
Профиль формата                          : High@L4.1
Параметр CABAC формата                   : Да
Параметр ReFrames формата                : 5 кадров
Идентификатор кодека                     : V_MPEG4/ISO/AVC
Продолжительность                        : 1 ч. 48 м.
Битрейт                                  : 7122 Кбит/сек
Ширина                                   : 1920 пикселей
Высота                                   : 804 пикселя
Соотношение сторон                       : 2,40:1
Режим частоты кадров                     : Постоянный
Частота кадров                           : 23,976 (24000/1001) кадра/сек
Цветовое пространство                    : YUV
Субдискретизация насыщенности            : 4:2:0
Битовая глубина                          : 8 бит
Тип развёртки                            : Прогрессивная
Бит/(Пиксели*Кадры)                      : 0.192
Размер потока                            : 5,26 Гбайт (92%)
Библиотека кодирования                   : x264 core 152 r2851 ba24899
Настройки программы                      : cabac=1 / ref=5 / deblock=1:0:0 / analyse=0x3:0x113 / me=umh / subme=11 / psy=1 / psy_rd=1.00:0.00 / mixed_ref=1 / me_range=32 / chroma_me=1 / trellis=2 / 8x8dct=1 / cqm=0 / deadzone=21,11 / fast_pskip=0 / chroma_qp_offset=-2 / threads=12 / lookahead_threads=2 / sliced_threads=0 / nr=0 / decimate=0 / interlaced=0 / bluray_compat=0 / constrained_intra=0 / bframes=9 / b_pyramid=2 / b_adapt=2 / b_bias=0 / direct=3 / weightb=1 / open_gop=0 / weightp=2 / keyint=250 / keyint_min=23 / scenecut=40 / intra_refresh=0 / rc_lookahead=40 / rc=2pass / mbtree=0 / bitrate=7122 / ratetol=1.0 / qcomp=0.65 / qpmin=0 / qpmax=69 / qpstep=4 / cplxblur=20.0 / qblur=0.5 / vbv_maxrate=50000 / vbv_bufsize=62500 / nal_hrd=none / filler=0 / ip_ratio=1.40 / pb_ratio=1.30 / aq=3:1.00
Язык                                     : English
Default                                  : Да
Forced                                   : Нет

Аудио
Идентификатор                            : 2
Формат                                   : AC-3
Формат/Информация                        : Audio Coding 3
Расширение режима                        : CM (complete main)
Параметр Endianness формата              : Big
Идентификатор кодека                     : A_AC3
Продолжительность                        : 1 ч. 48 м.
Вид битрейта                             : Постоянный
Битрейт                                  : 448 Кбит/сек
Каналы                                   : 6 каналов
Расположение каналов                     : Front: L C R, Side: L R, LFE
Частота                                  : 48,0 КГц
Частота кадров                           : 31,250 кадров/сек (1536 spf)
Метод сжатия                             : С потерями
Размер потока                            : 347 Мбайт (6%)
Язык                                     : Russian
Default                                  : Да
Forced                                   : Нет

Текст #1
Идентификатор                            : 3
Формат                                   : UTF-8
Идентификатор кодека                     : S_TEXT/UTF8
Идентификатор кодека/Информация          : UTF-8 Plain Text
Заголовок                                : FORCED
Язык                                     : Russian
Default                                  : Да
Forced                                   : Нет

Текст #2
Идентификатор                            : 4
Формат                                   : UTF-8
Идентификатор кодека                     : S_TEXT/UTF8
Идентификатор кодека/Информация          : UTF-8 Plain Text
Заголовок                                : FULL
Язык                                     : Russian
Default                                  : Нет
Forced                                   : Нет

Меню
00:00:00.000                             : :Chapter 01
00:03:37.800                             : :Chapter 02
00:08:10.281                             : :Chapter 03
00:11:51.460                             : :Chapter 04
00:16:23.524                             : :Chapter 05
00:24:14.870                             : :Chapter 06
00:28:30.458                             : :Chapter 07
00:34:03.124                             : :Chapter 08
00:37:53.187                             : :Chapter 09
00:40:54.160                             : :Chapter 10
00:44:55.359                             : :Chapter 11
00:49:15.994                             : :Chapter 12
00:53:27.245                             : :Chapter 13
00:59:40.952                             : :Chapter 14
01:03:20.671                             : :Chapter 15
01:06:23.270                             : :Chapter 16
01:09:19.822                             : :Chapter 17
01:12:18.917                             : :Chapter 18
01:17:33.940                             : :Chapter 19
01:20:55.058                             : :Chapter 20
01:25:33.837                             : :Chapter 21
01:30:38.391                             : :Chapter 22
01:36:01.839                             : :Chapter 23
01:38:01.166                             : :Chapter 24




Скриншоты:
[+] Всего файлов в раздаче - 1:
Ferdinand.(2017).BDRip-1080p.MegaPeer.(qqss44).mkv5.72 GB

Текущая раздача:
ДатаКомментарии    РазмерПиры
2018-03-16 U Фердинанд / Ferdinand (2017) BDRip 1080p от qqss44 & MegaPeer | Лицензия 5.72 GB ↑ 174 ↓ 150

Показать еще раздачи по запросу фердинанд:
2018-04-08 U Фердинанд / Ferdinand (2017) BDRip-HEVC 1080p | 60 fps | Лицензия 5.82 GB ↑ 54 ↓ 29
2018-03-21 U Фердинанд / Ferdinand (2017) BDRip 1080p от Heisenberg & NNMClub | Лицензия 4.37 GB ↑ 81 ↓ 32
2018-03-20 U Фердинанд / Ferdinand (2017) BDRip 720p от Scarabey | Лицензия 3.76 GB ↑ 137 ↓ 25
2018-03-19 U Фердинанд / Ferdinand (2017) BDRip от ExKinoRay | Лицензия 2.18 GB ↑ 112 ↓ 27
2018-03-18 U Фердинанд / Ferdinand (2017) HDRip от Scarabey | Лицензия 745.36 MB ↑ 146 ↓ 27
2018-03-18 U Фердинанд / Ferdinand (2017) HDRip от Scarabey | Лицензия 1.45 GB ↑ 96 ↓ 39
2018-03-17 U Фердинанд / Ferdinand (2017) BDRip-HEVC 1080p от M@kSIMus 4.31 GB ↑ 67 ↓ 29

Отзывы
Зарегистрируйтесь чтобы добавить комментарий.
Обратная связь
Copyleft ©