↑↓Torrent.by
Поиск
Логин: Регистрация
Пароль: Восстановить пароль
Загрузка...

Фердинанд / Ferdinand (2017) BDRip-HEVC 1080p от M@kSIMus

Скачать ferdinand-2017-bdrip-hevc-1080p-ot-m-ksimus.torrent
U Магнитная ссылка Размер: 4.31 GB Раздают: 67 Качают: 30 Добавлен: 2018-03-17 12:02:15
Фердинанд / Ferdinand (2017) BDRip-HEVC 1080p от M@kSIMus

Название: Фердинанд
Оригинальное название: Ferdinand
Год выхода: 2017
Жанр: Семейный, комедия, мультфильм
Режиссер: Карлос Салдана
В ролях: Джон Сина, Кейт МакКиннон, Дэвид Теннант, Бобби Каннавейл, Энтони Андерсон, Джек Гор, Джет Юргенсмейер, Найл Диас, Колин Х. Мерфи, Карлос Салдана

О фильме:
Фердинанд — самый добродушный бык во всей Испании. Несмотря на внушительные размеры и недюжинную силу, он с детства предпочитал сидеть на лужайке и любоваться цветами вместо того, чтобы бодаться с другими быками. По нелепой случайности Фердинанд был выбран среди других соплеменников для участия в бое быков в Мадриде.

Страна: США
Студия: Blue Sky Studios, Davis Entertainment, Twentieth Century Fox Animation
Продолжительность: 01:48:12
Перевод: Дубляж, Оригинал

Файл
Кодек: H.265
Качество: BDRip 1080p [HEVC] 10 bit
Видео: 4694 Кбит/сек, 1920x804 (2,40:1), 23,976 кадра/сек
Звук:
AC3, 448 Кбит/сек, 6 каналов, 48,0 КГц - Russian
AC3, 448 Кбит/сек, 6 каналов, 48,0 КГц - English

Релиз от: M@kSIMus
[+] MI
Общее
Уникальный идентификатор                 : 46770236014987476490532887032595170769 (0x232F9EAB85DF04506F2EDA1E8D2745D1)
Полное имя                               : D:ТоррентыФердинанд (2017) BDRip 1080p [HEVC] 10 bit.mkv
Формат                                   : Matroska
Версия формата                           : Version 4 / Version 2
Размер файла                             : 4,31 Гбайт
Продолжительность                        : 1 ч. 48 м.
Общий поток                              : 5703 Кбит/сек
Дата кодирования                         : UTC 2018-03-16 16:26:05
Программа кодирования                    : mkvmerge v19.0.0 ('Brave Captain') 64-bit
Библиотека кодирования                   : libebml v1.3.5 + libmatroska v1.4.8
Attachements                             : cover.jpg

Видео
Идентификатор                            : 1
Формат                                   : HEVC
Формат/Информация                        : High Efficiency Video Coding
Профиль формата                          : Main 10@L5.1
Идентификатор кодека                     : V_MPEGH/ISO/HEVC
Продолжительность                        : 1 ч. 48 м.
Битрейт                                  : 4694 Кбит/сек
Ширина                                   : 1920 пикселей
Высота                                   : 804 пикселя
Соотношение сторон                       : 2,40:1
Режим частоты кадров                     : Постоянный
Частота кадров                           : 23,976 кадра/сек
Цветовое пространство                    : YUV
Субдискретизация насыщенности            : 4:2:0
Битовая глубина                          : 10 бит
Бит/(Пиксели*Кадры)                      : 0.127
Размер потока                            : 3,55 Гбайт (82%)
Библиотека кодирования                   : x265 2.7+8-613d9f443769:[Windows][clang 7.0.0][64 bit] 10bit
Настройки программы                      : cpuid=1050111 / frame-threads=5 / numa-pools=4 / wpp / no-pmode / no-pme / no-psnr / no-ssim / log-level=3 / input-csp=1 / input-res=1920x804 / interlace=0 / total-frames=0 / level-idc=51 / high-tier=1 / uhd-bd=0 / ref=3 / allow-non-conformance / no-repeat-headers / annexb / no-aud / no-hrd / info / hash=0 / no-temporal-layers / open-gop / min-keyint=24 / keyint=240 / gop-lookahead=0 / bframes=4 / b-adapt=2 / b-pyramid / bframe-bias=0 / rc-lookahead=20 / lookahead-slices=5 / scenecut=40 / radl=0 / no-intra-refresh / ctu=64 / min-cu-size=8 / no-rect / no-amp / max-tu-size=32 / tu-inter-depth=1 / tu-intra-depth=1 / limit-tu=0 / rdoq-level=0 / dynamic-rd=0.00 / no-ssim-rd / signhide / no-tskip / nr-intra=0 / nr-inter=0 / no-constrained-intra / strong-intra-smoothing / max-merge=2 / limit-refs=3 / no-limit-modes / me=1 / subme=2 / merange=57 / temporal-mvp / weightp / no-weightb / no-analyze-src-pics / deblock=-4:-4 / sao / no-sao-non-deblock / rd=3 / no-early-skip / rskip / no-fast-intra / no-tskip-fast / no-cu-lossless / no-b-intra / no-splitrd-skip / rdpenalty=0 / psy-rd=2.00 / psy-rdoq=0.00 / no-rd-refine / no-lossless / cbqpoffs=0 / crqpoffs=0 / rc=crf / crf=16.0 / qcomp=0.60 / qpstep=4 / stats-write=0 / stats-read=0 / vbv-maxrate=160000 / vbv-bufsize=160000 / vbv-init=0.9 / crf-max=30.0 / crf-min=0.0 / ipratio=1.40 / pbratio=1.30 / aq-mode=1 / aq-strength=1.00 / cutree / zone-count=0 / no-strict-cbr / qg-size=32 / no-rc-grain / qpmax=69 / qpmin=0 / no-const-vbv / sar=1 / overscan=0 / videoformat=5 / range=0 / colorprim=2 / transfer=2 / colormatrix=2 / chromaloc=0 / display-window=0 / max-cll=0,0 / min-luma=0 / max-luma=1023 / log2-max-poc-lsb=8 / vui-timing-info / vui-hrd-info / slices=1 / no-opt-qp-pps / no-opt-ref-list-length-pps / no-multi-pass-opt-rps / scenecut-bias=0.05 / no-opt-cu-delta-qp / no-aq-motion / no-hdr / no-hdr-opt / no-dhdr10-opt / analysis-reuse-level=5 / scale-factor=0 / refine-intra=0 / refine-inter=0 / refine-mv=0 / no-limit-sao / ctu-info=0 / no-lowpass-dct / refine-mv-type=0 / copy-pic=1 / max-ausize-factor=1.0
Язык                                     : English
Default                                  : Да
Forced                                   : Нет
DURATION                                 : 01:48:12.570000000
NUMBER_OF_FRAMES                         : 155666
NUMBER_OF_BYTES                          : 3899621966
_STATISTICS_WRITING_APP                  : mkvmerge v19.0.0 ('Brave Captain') 64-bit
_STATISTICS_WRITING_DATE_UTC             : 2018-03-16 16:26:05
_STATISTICS_TAGS                         : BPS DURATION NUMBER_OF_FRAMES NUMBER_OF_BYTES

Аудио #1
Идентификатор                            : 2
Формат                                   : AC-3
Формат/Информация                        : Audio Coding 3
Расширение режима                        : CM (complete main)
Параметр Endianness формата              : Big
Идентификатор кодека                     : A_AC3
Продолжительность                        : 1 ч. 48 м.
Вид битрейта                             : Постоянный
Битрейт                                  : 448 Кбит/сек
Каналы                                   : 6 каналов
Расположение каналов                     : Front: L C R, Side: L R, LFE
Частота                                  : 48,0 КГц
Битовая глубина                          : 16 бит
Метод сжатия                             : С потерями
Размер потока                            : 347 Мбайт (8%)
Заголовок                                : Дубляж
Язык                                     : Russian
Default                                  : Да
Forced                                   : Нет
DURATION                                 : 01:48:12.576000000
NUMBER_OF_FRAMES                         : 202893
NUMBER_OF_BYTES                          : 363584256
_STATISTICS_WRITING_APP                  : mkvmerge v19.0.0 ('Brave Captain') 64-bit
_STATISTICS_WRITING_DATE_UTC             : 2018-03-16 16:26:05
_STATISTICS_TAGS                         : BPS DURATION NUMBER_OF_FRAMES NUMBER_OF_BYTES

Аудио #2
Идентификатор                            : 3
Формат                                   : AC-3
Формат/Информация                        : Audio Coding 3
Расширение режима                        : CM (complete main)
Параметр Endianness формата              : Big
Идентификатор кодека                     : A_AC3
Продолжительность                        : 1 ч. 48 м.
Вид битрейта                             : Постоянный
Битрейт                                  : 448 Кбит/сек
Каналы                                   : 6 каналов
Расположение каналов                     : Front: L C R, Side: L R, LFE
Частота                                  : 48,0 КГц
Битовая глубина                          : 16 бит
Метод сжатия                             : С потерями
Размер потока                            : 347 Мбайт (8%)
Заголовок                                : Original
Язык                                     : English
Default                                  : Нет
Forced                                   : Нет
DURATION                                 : 01:48:12.576000000
NUMBER_OF_FRAMES                         : 202893
NUMBER_OF_BYTES                          : 363584256
_STATISTICS_WRITING_APP                  : mkvmerge v19.0.0 ('Brave Captain') 64-bit
_STATISTICS_WRITING_DATE_UTC             : 2018-03-16 16:26:05
_STATISTICS_TAGS                         : BPS DURATION NUMBER_OF_FRAMES NUMBER_OF_BYTES




Скриншоты:
[+] Всего файлов в раздаче - 1:
Фердинанд (2017) BDRip 1080p [HEVC] 10 bit.mkv4.31 GB

Текущая раздача:
ДатаКомментарии    РазмерПиры
2018-03-17 U Фердинанд / Ferdinand (2017) BDRip-HEVC 1080p от M@kSIMus 4.31 GB ↑ 67 ↓ 30

Показать еще раздачи по запросу фердинанд:
2018-04-08 U Фердинанд / Ferdinand (2017) BDRip-HEVC 1080p | 60 fps | Лицензия 5.82 GB ↑ 80 ↓ 34
2018-03-21 U Фердинанд / Ferdinand (2017) BDRip 1080p от Heisenberg & NNMClub | Лицензия 4.37 GB ↑ 143 ↓ 34
2018-03-20 U Фердинанд / Ferdinand (2017) BDRip 720p от Scarabey | Лицензия 3.76 GB ↑ 361 ↓ 28
2018-03-19 U Фердинанд / Ferdinand (2017) BDRip от ExKinoRay | Лицензия 2.18 GB ↑ 146 ↓ 31
2018-03-18 U Фердинанд / Ferdinand (2017) HDRip от Scarabey | Лицензия 745.36 MB ↑ 234 ↓ 27
2018-03-18 U Фердинанд / Ferdinand (2017) HDRip от Scarabey | Лицензия 1.45 GB ↑ 113 ↓ 45
2018-03-17 U Фердинанд / Ferdinand (2017) BDRip от ExKinoRay | Лицензия 1.46 GB ↑ 370 ↓ 100

Отзывы
Зарегистрируйтесь чтобы добавить комментарий.
Обратная связь
Copyleft ©