↑↓Torrent.by
Поиск
Логин: Регистрация
Пароль: Восстановить пароль
Загрузка...

Язычники (2017) WEB-DLRip от Portablius

Скачать yazychniki-2017-web-dlrip-ot-portablius.torrent
U Магнитная ссылка Размер: 698.25 MB Раздают: 64 Качают: 17 Добавлен: 2018-03-19 08:52:31
Язычники (2017) WEB-DLRip от Portablius

Название: Язычники
Год выхода: 2017
Жанр: Драма
Режиссер: Валерия Суркова
В ролях: Елена Нестерова, Валентин Самохин, Татьяна Владимирова, Виталия Еньшина, Дмитрий Уросов, Алексей Овсянников (II), Артём Григорьев, Дмитрий Свердлов, Сергей Шевченко, Анна Котова, Алиса Дмитриева, Сергей Фролов

О фильме: Экранизация пьесы молодого драматурга Анны Яблонской, трагически погибшей в 2011 году при взрыве в аэропорту «Домодедово». Живет одна несчастливая семья. Отец - безработный музыкант, мать пашет на тяжелой работе, чтобы оплатить образование дочери, в доме бесконечный ремонт, с которым никак не справится сосед-алкоголик по прозвищу Боцман. До кучи нежданно-негаданно приезжает бабушка, после десяти лет скитаний по святым местам. Никто не рад внезапной гостье, раздражающей христианскими нравоучениями, но с ее появлением чудесным образом начинает налаживаться жизнь сына, невестки и даже непутевого Боцмана. Только для девятнадцатилетней внучки Кристины этот приезд спровоцирует настоящую трагедию... Так кто же такие язычники? Язычники - это те, кто беззащитен перед стихийными событиями жизни, и ищет защиту в вере в чудо. Язычники - это наши современники, те из них, кто за слепой религиозностью скрывает неспособность услышать ближнего и помочь ему. Язычники - это мы, без настоящей веры в Бога, друг в друга, в себя.

Страна: Россия
Студия: Кинокомпания "Синема Фрог"
Продолжительность: 01:32:00
Перевод: Не Требуется
Субтитры: Нет

Файл
Кодек: XviD
Качество: WEB-DLRip
Видео: 688x384 (1.79:1), 25 fps, XviD build 73 ~918 kbps avg, 0.14 bit/pixel
Звук: 48 kHz, MPEG Layer 3, 2 ch, ~128.00 kbps avg
[+] MediaInfo
General
Complete name               : Yazychniki.2017.WEB-DLRip.ot.Portablius.avi
Format                      : AVI
Format/Info                 : Audio Video Interleave
File size                   : 698 MiB
Duration                    : 1 h 32 min
Overall bit rate            : 1 056 kb/s
Writing application         : VirtualDubMod 1.5.10.3 | www.virtualdub-fr.org || (build 2550/release)
Writing library             : VirtualDubMod build 2550/release

Video
ID                          : 0
Format                      : MPEG-4 Visual
Format profile              : Advanced Simple@L5
Format settings, BVOP       : 1
Format settings, QPel       : No
Format settings, GMC        : No warppoints
Format settings, Matrix     : Custom
Codec ID                    : XVID
Codec ID/Hint               : XviD
Duration                    : 1 h 32 min
Bit rate                    : 918 kb/s
Width                       : 688 pixels
Height                      : 384 pixels
Display aspect ratio        : 16:9
Frame rate                  : 25.000 FPS
Color space                 : YUV
Chroma subsampling          : 4:2:0
Bit depth                   : 8 bits
Scan type                   : Progressive
Compression mode            : Lossy
Bits/(Pixel*Frame)          : 0.139
Stream size                 : 607 MiB (87%)
Writing library             : XviD 73

Audio
ID                          : 1
Format                      : MPEG Audio
Format version              : Version 1
Format profile              : Layer 3
Codec ID                    : 55
Codec ID/Hint               : MP3
Duration                    : 1 h 32 min
Bit rate mode               : Constant
Bit rate                    : 128 kb/s
Channel(s)                  : 2 channels
Sampling rate               : 48.0 kHz
Compression mode            : Lossy
Stream size                 : 84.6 MiB (12%)
Alignment                   : Aligned on interleaves
Interleave, duration        : 40  ms (1.00 video frame)
Interleave, preload duratio : 504  ms
Writing library             : LAME3.99r
Encoding settings           : -m s -V 4 -q 2 -lowpass 17 -b 128




Скриншоты:
[+] Всего файлов в раздаче - 1:
Yazychniki.2017.WEB-DLRip.ot.Portablius.avi698.25 MB

Текущая раздача:
ДатаКомментарии    РазмерПиры
2018-03-19 U Язычники (2017) WEB-DLRip от Portablius 1 К 698.25 MB ↑ 64 ↓ 17

Похожие раздачи по запросу - язычники:
2018-03-17 U Язычники (2017) WEB-DL 720p от Files-x 2.11 GB ↑ 116 ↓ 37
2018-03-17 U Язычники (2017) WEB-DLRip-AVC от Files-x 1.37 GB ↑ 110 ↓ 49
2018-03-17 U Язычники (2017) WEB-DL 1080p от Files-x 3.12 GB ↑ 153 ↓ 62
2018-03-17 U Язычники (2017) WEB-DLRip от Files-x 1.37 GB ↑ 212 ↓ 38

Отзывы
r29blr Оценка: 4
Невозможно у славян полностью уничтожить древнюю языческую ( народную ) культуру и заставить поклоняться христианской культуре .

Зарегистрируйтесь чтобы добавить комментарий.
Обратная связь
Copyleft ©