↑↓Torrent.by
Поиск
Логин: Регистрация
Пароль: Восстановить пароль
Загрузка...

Время собирать камни (2005) DVDRip-AVC от KORSAR

Скачать vremya-sobirat-kamni-2005-dvdrip-avc-ot-korsar.torrent
U Магнитная ссылка Размер: 1.87 GB Раздают: 61 Качают: 21 Добавлен: 2018-03-19 08:53:01
Время собирать камни (2005) DVDRip-AVC от KORSAR

Название: Время собирать камни
Год выхода: 2005
Жанр: Военный
Режиссер: Алексей Карелин
В ролях: Владимир Вдовиченков, Ольга Красько, Давид Буннерс, Евдокия Германова, Андрей Федорцов, Александр Лыков, Ирина Рахманова, Владимир Меньшов, Олег Алмазов, Юрий Ицков, Антон Кукушкин, Алексей Ошурков, Александр Рапопорт, Сергей Рубеко, Сергей Удовик

О фильме: Май 1945 года. Немецкий минер, офицер Рудольф Онезорг, раскаявшись в преступлениях, совершенных во время второй мировой войны на территории СССР, решает вернуться в места, где воевал. Он хочет собственноручно обезвредить расставленные на гражданских объектах мины.

Связной между Онезоргом и капитаном Деминым становится переводчица Неля, еще нe оправившаяся после пережитых ужасов блокады и фронта. Эти трое пытаются делать первые шаги навстречу мирной жизни…

Страна: Россия
Студия: Мосфильм
Продолжительность: 01:33:00

Файл
Кодек: х264
Качество: DVDRip-AVC
Видео: MPEG-4 AVC, 720x460@768x460, 25 fps, 2375 Кбит/с
Звук: AC3, 2 ch, 448 Кбит/с

Релиз:


[+] Инфо файл

Общее
Уникальный идентификатор         : 171724548722954419573542983942097570536 (0x8130F1EF44A5AEE193F0C6B7102B8AE8)
Полное имя                       : D:Время собирать камни_2005-DVDRip-AVC.mkv
Формат                           : Matroska
Размер файла                     : 1,87 Гбайт
Продолжительность                : 1 ч. 33 м.
Общий поток                      : 2881 Кбит/сек
Дата кодирования                 : UTC 2017-09-01 15:34:36
Программа кодирования            : mkvmerge v5.8.0 ('No Sleep / Pillow') built on Sep  2 2012 15:37:04
Библиотека кодирования           : libebml v1.2.3 + libmatroska v1.3.0

Видео
Идентификатор                    : 1
Формат                           : AVC
Формат/Информация                : Advanced Video Codec
Профиль формата                  : High@L4.1
Параметр CABAC формата           : Да
Параметр ReFrames формата        : 14 кадры
Идентификатор кодека             : V_MPEG4/ISO/AVC
Продолжительность                : 1 ч. 33 м.
Битрейт                          : 2375 Кбит/сек
Ширина                           : 720 пикс.
Высота                           : 460 пикс.
Соотношение сторон               : 1,670
Частота кадров                   : 25,000 кадр/сек
Цветовое пространство            : YUV
Подвыборка цветности             : 4:2:0
Битовая глубина                  : 8 бит
Тип развёртки                    : Прогрессивная
Бит/(Пиксели*Кадры)              : 0.287
Размер потока                    : 1,54 Гбайт (82%)
Заголовок                        : korsar.tv
Библиотека кодирования           : x264 core 148 r2744kMod b97ae06
Настройки программы              : cabac=1 / ref=14 / deblock=1:-2:-2 / analyse=0x3:0x133 / me=umh / subme=10 / psy=1 / fade_compensate=0.00 / psy_rd=1.05:0.10 / mixed_ref=1 / me_range=32 / chroma_me=1 / trellis=2 / 8x8dct=1 / cqm=0 / deadzone=21,11 / fast_pskip=1 / chroma_qp_offset=-3 / threads=12 / lookahead_threads=2 / sliced_threads=0 / nr=0 / decimate=1 / interlaced=0 / bluray_compat=0 / constrained_intra=0 / bframes=8 / b_pyramid=2 / b_adapt=2 / b_bias=0 / direct=1 / weightb=1 / open_gop=0 / weightp=2 / keyint=250 / keyint_min=25 / scenecut=40 / intra_refresh=0 / rc=crf / mbtree=0 / crf=17.3000 / qcomp=0.63 / qpmin=0 / qpmax=39 / qpstep=4 / ip_ratio=1.40 / pb_ratio=1.30 / aq=1:1.00
Язык                             : English
Основные цвета                   : BT.470-6 System B, BT.470-6 System G, BT.601-6 625, BT.1358 625, BT.1700 625 PAL, BT.1700 625 SECAM
Характеристики трансфера         : BT.470-6 System B, BT.470-6 System G
Коэффициенты матрицы             : BT.470-6 System B, BT.470-6 System G, BT.601-6 625, BT.1358 625, BT.1700 625 PAL, BT.1700 625 SECAM, IEC 61966-2-4 601

Аудио
Идентификатор                    : 2
Формат                           : AC-3
Формат/Информация                : Audio Coding 3
Расширение режима                : CM (complete main)
Идентификатор кодека             : A_AC3
Продолжительность                : 1 ч. 33 м.
Вид битрейта                     : Постоянный
Битрейт                          : 448 Кбит/сек
Канал(ы)                         : 2 канала(ов)
Расположение каналов             : Front: L R
Частота                          : 48,0 КГц
Битовая глубина                  : 16 бит
Метод сжатия                     : С потерями
Размер потока                    : 298 Мбайт (16%)
Язык                             : Russian

Меню
00:00:00.000                     : en:Chapter 1
00:05:26.440                     : en:Chapter 2
00:10:33.400                     : en:Chapter 3
00:13:30.160                     : en:Chapter 4
00:19:31.240                     : en:Chapter 5
00:23:05.320                     : en:Chapter 6
00:28:06.280                     : en:Chapter 7
00:30:56.560                     : en:Chapter 8
00:38:58.600                     : en:Chapter 9
00:42:47.800                     : en:Chapter 10
00:51:06.880                     : en:Chapter 11
00:59:07.240                     : en:Chapter 12
01:02:09.160                     : en:Chapter 13
01:08:46.960                     : en:Chapter 14
01:16:31.000                     : en:Chapter 15
01:20:08.560                     : en:Chapter 16
01:26:06.640                     : en:Chapter 17
01:31:40.000                     : en:Chapter 18
01:32:57.880                     : en:Chapter 19



Скриншоты:
[+] Всего файлов в раздаче - 1:
Время собирать камни_2005-DVDRip-AVC.mkv1.87 GB

Текущая раздача:
ДатаКомментарии    РазмерПиры
2018-03-19 U Время собирать камни (2005) DVDRip-AVC от KORSAR 1 К 1.87 GB ↑ 61 ↓ 21

Показать еще раздачи по запросу время:
2018-09-14 U Смешное время [01-11] (2018) WEB-DLRip 3.42 GB ↑ 58 ↓ 73
2018-07-17 U Виталий Лозовский - Как выжить и провести время с пользой в тюрьме (2016) FB2 3.06 MB ↑ 384 ↓ 1
2018-06-26 U Девочка, покорившая время / The Girl Who Leapt Through Time / Toki wo Kakeru Shojo (2006) BDRip от HQCLUB 1.46 GB ↑ 359 ↓ 52
2018-06-19 U Изменяющий время / Преобразователь времени / Time Changer (2002) WEB-DL 1080p | P 8.47 GB ↑ 110 ↓ 31
2018-06-15 U Когда кончилось время / When Time Ran Out... (1980) DVDRip | P2, A 1.59 GB ↑ 36 ↓ 16
2018-05-22 U Время псов / The Hunter's Prayer (2017) BDRip-AVC от HELLYWOOD | Лицензия 1.46 GB ↑ 67 ↓ 17
2018-05-04 U Время ведьм / Season of the Witch (2011) BDRip 720p | D, A, L1 8.69 GB ↑ 34 ↓ 239

Отзывы
timoha_gavr@mail.ru
Шикарный фильм.Благодарствую!

Зарегистрируйтесь чтобы добавить комментарий.
Обратная связь
Copyleft ©