↑↓Torrent.by
Поиск
Логин: Регистрация
Пароль: Восстановить пароль
Загрузка...

Селфи (2018) WEB-DLRip-AVC от Generalfilm | iTunes

Скачать selfi-2018-web-dlrip-avc-ot-generalfilm-itunes.torrent
U Магнитная ссылка Размер: 1.39 GB Раздают: 356 Качают: 144 Добавлен: 2018-03-19 15:52:38
Селфи (2018) WEB-DLRip-AVC от Generalfilm | iTunes

Название: Селфи
Год выпуска: 2018
Страна: Россия
Жанр: триллер, драма
Перевод: оригинал [iTunes]
Продолжительность: 01:49:51
Режиссер: Николай Хомерики
В ролях: Константин Хабенский (Владимир Богданов, писатель и телеведущий), Юлия Хлынина (Жанна), Фёдор Бондарчук (Макс, лучший друг Богданова), Анна Михалкова (Вика), Северия Янушаускайте (Лера), Михаил Мухтасипов (Миша, друг Богданова), Александра Велескевич (читательница), Сергей Бондаренко (друг Богданова), Андрей Гринев, Марина Калецкая, Петр Нестеров, Олеся Зубкова

Описание:
Он полностью копировал его - жесты, мимика, даже шутил так, что никто не заподозрил подмены. Богданов смотрел в экран, как в зеркало. Двойник вел его телепередачу, встречался с его фанатами-читателями, жил с его женщинами, выпивал в баре с его друзьями... Это произошло вмиг - раз - тебя стерли, твою личность, и тут бессильны лучшие психоаналитики. Публичный и успешный, остроумный и циничный, Богданов лишился всего, чего добивался годами, выстраивая свою карьеру и жизнь. И теперь он отчетливо понимал: копия лучше и честнее его самого, битва за себя проиграна. И только дочь хочет вернуть истинного Богданова...
Мировая премьера: 2 февраля 2018

Качество: WEB-DLRip-AVC
Формат: MKV
Видео: AVC, 1024x426 (2.40:1), 1421 kbps, 25 fps, 0,130 bpp
Аудио: русский / AC3 / 5.1 / 48 kHz / 384 kbps / ||
Навигация по главам: есть
Релиз:
[+] ОтчетМедиаИнфо

General
Unique ID                                : 254026396957066454145643644539041797690 (0xBF1BB45741E0CB80882BA828B898D63A)
Complete name                            : E:Selfie.2017.WEB-DLRip-AVC.by.White Smoke.R.G.Generalfilm.mkv
Format                                   : Matroska
Format version                           : Version 4 / Version 2
File size                                : 1.39 GiB
Duration                                 : 1 h 49 min
Overall bit rate                         : 1 806 kb/s
Movie name                               : Selfie.2017.WEB-DLRip-AVC.by.White Smoke.R.G.Generalfilm.mkv
Encoded date                             : UTC 2018-03-19 07:57:48
Writing application                      : mkvmerge v6.8.0 ('Theme for Great Cities') 64bit built on Mar  2 2014 21:34:26
Writing library                          : libebml v1.3.0 + libmatroska v1.4.1

Video
ID                                       : 1
Format                                   : AVC
Format/Info                              : Advanced Video Codec
Format profile                           : High@L4.1
Format settings, CABAC                   : Yes
Format settings, ReFrames                : 10 frames
Codec ID                                 : V_MPEG4/ISO/AVC
Duration                                 : 1 h 49 min
Bit rate                                 : 1 421 kb/s
Width                                    : 1 024 pixels
Height                                   : 426 pixels
Display aspect ratio                     : 2.40:1
Frame rate mode                          : Constant
Frame rate                               : 25.000 FPS
Color space                              : YUV
Chroma subsampling                       : 4:2:0
Bit depth                                : 8 bits
Scan type                                : Progressive
Bits/(Pixel*Frame)                       : 0.130
Stream size                              : 1.06 GiB (77%)
Writing library                          : x264 core 148 r2638 7599210
Encoding settings                        : cabac=1 / ref=10 / deblock=1:-2:-1 / analyse=0x3:0x113 / me=umh / subme=11 / psy=1 / psy_rd=0.00:0.15 / mixed_ref=1 / me_range=32 / chroma_me=1 / trellis=2 / 8x8dct=1 / cqm=0 / deadzone=21,11 / fast_pskip=0 / chroma_qp_offset=-3 / threads=6 / lookahead_threads=1 / sliced_threads=0 / nr=0 / decimate=0 / interlaced=0 / bluray_compat=0 / constrained_intra=0 / bframes=10 / b_pyramid=2 / b_adapt=2 / b_bias=0 / direct=1 / weightb=1 / open_gop=0 / weightp=2 / keyint=250 / keyint_min=25 / scenecut=40 / intra_refresh=0 / rc_lookahead=40 / rc=2pass / mbtree=1 / bitrate=1421 / ratetol=1.0 / qcomp=0.65 / qpmin=0 / qpmax=69 / qpstep=4 / cplxblur=20.0 / qblur=0.5 / vbv_maxrate=50000 / vbv_bufsize=65500 / nal_hrd=none / filler=0 / ip_ratio=1.40 / aq=1:1.00
Language                                 : English
Default                                  : Yes
Forced                                   : No

Audio
ID                                       : 2
Format                                   : AC-3
Format/Info                              : Audio Coding 3
Mode extension                           : CM (complete main)
Format settings, Endianness              : Big
Codec ID                                 : A_AC3
Duration                                 : 1 h 49 min
Bit rate mode                            : Constant
Bit rate                                 : 384 kb/s
Channel(s)                               : 6 channels
Channel positions                        : Front: L C R, Side: L R, LFE
Sampling rate                            : 48.0 kHz
Frame rate                               : 31.250 FPS (1536 spf)
Compression mode                         : Lossy
Stream size                              : 302 MiB (21%)
Title                                    : iTunes
Language                                 : Russian
Default                                  : Yes
Forced                                   : No

Menu
00:00:00.000                             : en:Глава 1
00:08:39.000                             : en:Глава 2
00:14:04.039                             : en:Глава 3
00:22:09.559                             : en:Глава 4
00:26:45.719                             : en:Глава 5
00:31:21.798                             : en:Глава 6
00:36:19.878                             : en:Глава 7
00:42:43.037                             : en:Глава 8
00:47:45.316                             : en:Глава 9
00:53:22.636                             : en:Глава 10
00:58:17.036                             : en:Глава 11
01:03:07.556                             : en:Глава 12
01:09:49.155                             : en:Глава 13
01:15:08.194                             : en:Глава 14
01:23:32.954                             : en:Глава 15
01:29:31.273                             : en:Глава 16
01:33:51.231                             : en:Глава 17
01:38:57.951                             : en:Глава 18




Скриншоты:
[+] Всего файлов в раздаче - 1:
Selfie.2017.WEB-DLRip-AVC.by.White Smoke.R.G.Generalfilm.mkv1.39 GB

Текущая раздача:
ДатаКомментарии    РазмерПиры
2018-03-19 U Селфи (2018) WEB-DLRip-AVC от Generalfilm | iTunes 1.39 GB ↑ 356 ↓ 144

Показать еще раздачи по запросу селфи:
2018-03-27 U Селфи из ада / Selfie from Hell (2018) WEBRip | L2 1.26 GB ↑ 40 ↓ 11
2018-03-27 U Селфи из ада / Selfie from Hell (2018) WEBRip 720p | L2 1.52 GB ↑ 76 ↓ 10
2018-03-21 U Селфи (2018) WEB-DLRip от Scarabey | iTunes 1.45 GB ↑ 403 ↓ 124
2018-03-19 U Селфи (2018) WEB-DLRip от Generalfilm | КПК | iTunes 416.19 MB ↑ 80 ↓ 40
2018-03-19 U Селфи (2018) WEB-DLRip-AVC от OlLanDGroup | iTunes 1К745.21 MB ↑ 243 ↓ 76
2018-03-19 U Селфи (2018) WEB-DLRip от GeneralFilm | iTunes 746.51 MB ↑ 361 ↓ 70
2018-03-19 U Селфи (2017) WEB-DLRip от MegaPeer | iTunes 1.46 GB ↑ 1351 ↓ 670

Отзывы
Зарегистрируйтесь чтобы добавить комментарий.
Обратная связь
Copyleft ©