↑↓Torrent.by
Поиск
Логин: Регистрация
Пароль: Восстановить пароль
Загрузка...

Комик в городе [01х01-05] (2018) SATRip

Скачать komik-v-gorode-01h01-05-2018-satrip.torrent
U Магнитная ссылка Размер: 1.49 GB Раздают: 69 Качают: 115 Добавлен: 2018-03-19 19:32:27
Комик в городе [01х01-05] (2018) SATRip

Комик в городе

Страна: Россия
Производство: Comedy Club Production, Телеканал ТНТ
Год выпуска: 2018
Жанр:  ТВ-шоу, юмор, Stand up
Продолжительность: х ~00:22:00

Ведущий: Руслан Белый
Описание: «Комик в городе» - юмористическая программа о жизни в стране, в которой рассказывается не только о Москве, но и о жизни в регионах с точки зрения жителей самих регионов. Руслан Белый объездил несколько десятков городов России, чтобы в каждом из них дать юмористический концерт.

Перевод: не требуется (оригинал)
Субтитры: нет

Качество: SATRip
Формат: AVI
Видео кодек: XviD
Аудио кодек: МР3
Видео: 720x400 (16:9), 25.000 fps, XviD ~1 650 kbps avg
Аудио: 48.0 kHz, MPEG Layer 3, 2 ch, ~192 kbps avg
[+] Media Info
General
Complete name                  : Komik.v.gorode.S01E03.XviD.SATRip.25Kuzmich.avi
Format                         : AVI
Format/Info                    : Audio Video Interleave
File size                      : 293 MiB
Duration                       : 22mn 5s
Overall bit rate               : 1 852 Kbps
Writing application            : VirtualDubMod 1.5.10.3 | (build 2550/release)
Writing library                : VirtualDubMod build 2550/release

Video
ID                             : 0
Format                         : MPEG-4 Visual
Format profile                 : Advanced Simple@L5
Format settings, BVOP          : 2
Format settings, QPel          : No
Format settings, GMC           : No warppoints
Format settings, Matrix        : Default (MPEG)
Codec ID                       : XVID
Codec ID/Hint                  : XviD
Duration                       : 22mn 5s
Bit rate                       : 1 650 Kbps
Width                          : 720 pixels
Height                         : 400 pixels
Display aspect ratio           : 16:9
Frame rate                     : 25.000 fps
Color space                    : YUV
Chroma subsampling             : 4:2:0
Bit depth                      : 8 bits
Scan type                      : Progressive
Compression mode               : Lossy
Bits/(Pixel*Frame)             : 0.229
Stream size                    : 261 MiB (89%)
Writing library                : XviD 1.2.1 (UTC 2008-12-04)

Audio
ID                             : 1
Format                         : MPEG Audio
Format version                 : Version 1
Format profile                 : Layer 3
Mode                           : Joint stereo
Mode extension                 : MS Stereo
Codec ID                       : 55
Codec ID/Hint                  : MP3
Duration                       : 22mn 5s
Bit rate mode                  : Constant
Bit rate                       : 192 Kbps
Channel(s)                     : 2 channels
Sampling rate                  : 48.0 KHz
Compression mode               : Lossy
Stream size                    : 30.3 MiB (10%)
Alignment                      : Aligned on interleaves
Interleave, duration           : 40 ms (1.00 video frame)
Interleave, preload duration   : 504 ms
Writing library                : LAME3.99r
Encoding settings              : -m j -V 4 -q 2 -lowpass 18.6 -b 192



Скриншоты:
[+] Всего файлов в раздаче - 5:
Komik.v.gorode.S01E05.XviD.SATRip.25Kuzmich.avi325.38 MB
Komik.v.gorode.S01E04.XviD.SATRip.25Kuzmich.avi306.70 MB
Komik.v.gorode.S01E03.XviD.SATRip.25Kuzmich.avi292.50 MB
Komik.v.gorode.S01E02.XviD.SATRip.25Kuzmich.avi308.43 MB
Komik.v.gorode.S01E01.XviD.SATRip.25Kuzmich.avi288.66 MB

Текущая раздача:
ДатаКомментарии    РазмерПиры
2018-03-19 U Комик в городе [01х01-05] (2018) SATRip 1.49 GB ↑ 69 ↓ 115

Показать еще раздачи по запросу комик:
2018-03-26 U Комик в городе [01х01-06] (2018) SATRip 1.76 GB ↑ 71 ↓ 164
2018-03-12 U Комик в городе [01х01-04] (2018) SATRip 1.17 GB ↑ 305 ↓ 327
2018-03-05 U Комик в городе [01х01-02] (2018) WEBRip 613.38 MB ↑ 108 ↓ 33
2017-06-03 U Самый смешной комик / Huan le xi ju ren (2017) WEBRip 720р | L 2.72 GB ↑ 138 ↓ 54
2017-06-03 U Самый смешной комик / Huan Le Xi Ju Ren (2017) WEBRip | L 1.37 GB ↑ 102 ↓ 60
2017-05-05 U Комик / The Comedian (2016) WEB-DLRip | L 1.37 GB ↑ 612 ↓ 172
2017-05-05 U Комик / The Comedian (2016) WEB-DLRip 720р | L 1К3.79 GB ↑ 191 ↓ 3

Отзывы
Зарегистрируйтесь чтобы добавить комментарий.
Обратная связь
Copyleft ©