↑↓Torrent.by
Поиск
Логин: Регистрация
Пароль: Восстановить пароль
Загрузка...

Смертельное соседство / A Deadly View (2018) WEBRip 1080p | L2

Скачать smertelnoe-sosedstvo-a-deadly-view-2018-webrip-1080p-l2.torrent
U Магнитная ссылка Размер: 3.34 GB Раздают: 45 Качают: 24 Добавлен: 2018-03-20 07:32:27
Смертельное соседство / A Deadly View (2018) WEBRip 1080p | L2

Название: Смертельное соседство
Оригинальное название: A Deadly View

Год выхода: 2018
Жанр: Триллер
Режиссер: Эндрю Кумек
В ролях: Сара Митич, Кристиан Бруун, Нил Уайтли, Бриджитт Кингсли, Нола Аугустсон, Лиза Нортон, Эдриэнн Меррелл, Джим Чад, Мануэла Касинья и другие
О фильме:
Будущая мама, Рэйчел, переезжает с мужем в тихий пригород в надежде на спокойную и счастливую жизнь. Вскоре она замечает, что у соседей происходит странная активность, особенно у одной молодой и одинокой соседки, которая становится в глазах Рэйчел опасным человеком. Героиня хочет уехать, но муж не верит в ее опасения и ждет рождения ребенка. Наступает критический момент, когда жизни Рэйчел угрожает опасность, и только она сама сможет себе помочь.

Страна: США, Good Soldier Films
Продолжительность: 01:26:05
Перевод: Любительский (двухголосый закадровый) | HiWay Grope

Файл
Кодек: MPEG-4 AVC/H.264
Качество: WEBRip 1080p
Видео: 1904x1064, 23.976 fps, ~5061 kbps, 0.104 bit/pixel
Звук:
Аудио rus: AC3, 48 kHz, 6 ch, 384 Kbps
Субтитры: отсутствуют

Реклама: присутствует

Семпл

Релиз от: HiWay Grope


[+] MediaInfo:

General
Unique ID                                : 39095333882965789928451585805778180657 (0x1D697CC7A11CC7B390B3046E35A45A31)
Complete name                            : E:A.Deadly.View.2018.1080p.WEBRip.HiWayGropeA.Deadly.View.2018.1080p.WEBRip.HiWayGrope.mkv
Format                                   : Matroska
Format version                           : Version 4 / Version 2
File size                                : 3.34 GiB
Duration                                 : 1h 26mn
Overall bit rate                         : 5 555 Kbps
Encoded date                             : UTC 2018-03-19 15:07:33
Writing application                      : mkvmerge v21.0.0 ('Tardigrades Will Inherit The Earth') 64-bit
Writing library                          : libebml v1.3.5 + libmatroska v1.4.8

Video
ID                                       : 1
Format                                   : AVC
Format/Info                              : Advanced Video Codec
Format profile                           : Main@L4.1
Format settings, CABAC                   : Yes
Format settings, ReFrames                : 4 frames
Codec ID                                 : V_MPEG4/ISO/AVC
Duration                                 : 1h 26mn
Bit rate                                 : 5 061 Kbps
Width                                    : 1 904 pixels
Height                                   : 1 064 pixels
Display aspect ratio                     : 16:9
Frame rate mode                          : Constant
Frame rate                               : 23.976 (24000/1001) fps
Standard                                 : NTSC
Color space                              : YUV
Chroma subsampling                       : 4:2:0
Bit depth                                : 8 bits
Scan type                                : Progressive
Bits/(Pixel*Frame)                       : 0.104
Stream size                              : 3.04 GiB (91%)
Language                                 : English
Default                                  : Yes
Forced                                   : No
Color range                              : Limited
Color primaries                          : BT.709
Transfer characteristics                 : BT.709
Matrix coefficients                      : BT.709

Audio
ID                                       : 2
Format                                   : AC-3
Format/Info                              : Audio Coding 3
Mode extension                           : CM (complete main)
Format settings, Endianness              : Big
Codec ID                                 : A_AC3
Duration                                 : 1h 26mn
Bit rate mode                            : Constant
Bit rate                                 : 384 Kbps
Channel(s)                               : 6 channels
Channel positions                        : Front: L C R, Side: L R, LFE
Sampling rate                            : 48.0 KHz
Frame rate                               : 31.250 fps (1536 spf)
Compression mode                         : Lossy
Stream size                              : 236 MiB (7%)
Title                                    : кгы
Language                                 : Russian
Default                                  : Yes
Forced                                   : No




Скриншоты:
[+] Всего файлов в раздаче - 1:
A.Deadly.View.2018.1080p.WEBRip.HiWayGrope.mkv3.34 GB

Показать еще раздачи по запросу смертельное:
2018-09-26 U Смертельное оружие / Lethal Weapon [03x01 из 22] (2018) WEBRip 720p | Sunshine Studio 1.05 GB ↑ 159 ↓ 24
2018-05-12 U Смертельное оружие / Lethal Weapon [S02] (2017) WEBRip | LostFilm 11.82 GB ↑ 61 ↓ 114
2018-03-20 U Смертельное соседство / A Deadly View (2018) WEBRip | L2 1К1.14 GB ↑ 52 ↓ 28
2018-03-10 U Смертельное оружие / Lethal Weapon [02x01-17 из 22] (2017) WEBRip | LostFilm 9.14 GB ↑ 89 ↓ 71
2018-01-18 U Смертельное оружие / Lethal Weapon [02х01-13 из 22] (2017) WEB-DLRip 720p | Sunshine Studio 13.10 GB ↑ 123 ↓ 465
2018-01-13 U Смертельное оружие / Lethal Weapon [02x01-12 из 22] (2017) WEBRip | LostFilm 6.45 GB ↑ 46 ↓ 103
2018-01-11 U Смертельное оружие / Lethal Weapon [02х01-12 из 22] (2017) WEB-DLRip 720p | Sunshine Studio 11.99 GB ↑ 103 ↓ 244

Отзывы
Зарегистрируйтесь чтобы добавить комментарий.
Обратная связь
Copyleft ©