↑↓Torrent.by
Поиск
Логин: Регистрация
Пароль: Восстановить пароль
Загрузка...

Дедлайн (2018) BDRip 1080p

Скачать dedlayn-2018-bdrip-1080p.torrent
U Магнитная ссылка Размер: 1.75 GB Раздают: 52 Качают: 50 Добавлен: 2018-03-20 07:32:39
Дедлайн (2018) BDRip 1080p

Название: Дедлайн
Год выхода: 2018
Жанр: короткометражка, драма
Режиссер: Герман Полозов
В ролях: Евгений Баханов, Антон Тимофеев, Александр Рубан, Слава Гардер, Екатерина Марсальская, Дамир Миркамилов, Екатерина Клат, Николай Мурыгин

О фильме:
История популярного блогера, который делает серию журналистских расследований, стремясь ответить на сложный моральный вопрос — когда человек становится преступником? Когда совершил преступление или когда был за него осужден?

Страна: Россия
Студия: AG Films
Продолжительность: 00:20:36

Файл
Качество: BDRip 1080p
Формат: MKV
Видео: 1920x800, MPEG-4 AVC, 10.6Mbps, 25fps
Звук: PCM | 48.0 KHz | 2 ch | 1536 kbps


[+] MediaInfo
  General
     Unique ID : 169859369151097212217625774132600043513 (0x7FC9B97B574371C780C8AD226C84F7F9)
     Complete name : D:Deadline.2018.BDRip.1080p.mkv
     Format : Matroska
     Format version : Version 2
     File size : 1.75 GiB
     Duration : 20 min 36 s
     Overall bit rate : 12.2 Mb/s
     Encoded date : UTC 2018-03-12 14:06:53
     Writing application : mkvmerge v19.0.0 ('Brave Captain') 64-bit
     Writing library : libebml v1.3.5 + libmatroska v1.4.8
  Video #1
     ID : 1
     Format : AVC
     Format/Info : Advanced Video Codec
     Format profile : Baseline@L4.1
     Format settings, CABAC : No
     Format settings, ReFrames : 1 frame
     Codec ID : V_MPEG4/ISO/AVC
     Duration : 20 min 36 s
     Bit rate : 10.6 Mb/s
     Width : 1 920 pixels
     Height : 800 pixels
     Display aspect ratio : 2.40:1
     Frame rate mode : Constant
     Frame rate : 25.000 FPS
     Color space : YUV
     Chroma subsampling : 4:2:0
     Bit depth : 8 bits
     Scan type : Progressive
     Bits/(Pixel*Frame) : 0.276
     Stream size : 1.53 GiB (87%)
     Writing library : x264 core 152 r2851 ba24899
     Encoding settings : cabac=0 / ref=1 / deblock=0:0:0 / analyse=0:0 / me=dia / subme=0 / psy=1 / psy_rd=1.00:0.00 / mixed_ref=0 / me_range=16 / chroma_me=1 / trellis=0 / 8x8dct=0 / cqm=0 / deadzone=21,11 / fast_pskip=1 / chroma_qp_offset=0 / threads=18 / lookahead_threads=3 / sliced_threads=0 / nr=0 / decimate=1 / interlaced=0 / bluray_compat=0 / constrained_intra=0 / bframes=0 / weightp=0 / keyint=250 / keyint_min=25 / scenecut=0 / intra_refresh=0 / rc=2pass / mbtree=0 / bitrate=10613 / ratetol=1.0 / qcomp=0.60 / qpmin=0 / qpmax=69 / qpstep=4 / cplxblur=20.0 / qblur=0.5 / ip_ratio=1.40 / aq=0
     Default : Yes
     Forced : No
  Audio #2
     ID : 2
     Format : PCM
     Codec ID : A_PCM/INT/LIT
     Duration : 20 min 36 s
     Bit rate mode : Constant
     Bit rate : 1 536 kb/s
     Channel(s) : 2 channels
     Sampling rate : 48.0 kHz
     Frame rate : 32.000 FPS (1500 spf)
     Bit depth : 16 bits
     Stream size : 226 MiB (13%)
     Default : Yes
     Forced : No



Скриншоты:
[+] Всего файлов в раздаче - 1:
Deadline.2018.BDRip.1080p.mkv1.75 GB

Текущая раздача:
ДатаКомментарии    РазмерПиры
2018-03-20 U Дедлайн (2018) BDRip 1080p 1.75 GB ↑ 52 ↓ 50

Похожие раздачи по запросу - дедлайн:
2018-06-24 U Дедлайн (2018) HDRip от Portablius 142.90 MB ↑ 125 ↓ 13

Отзывы
Зарегистрируйтесь чтобы добавить комментарий.
Обратная связь
Copyleft ©