↑↓Torrent.by
Поиск
Логин: Регистрация
Пароль: Восстановить пароль
Загрузка...

Фердинанд / Ferdinand (2017) BDRip 1080p от Heisenberg & NNMClub | Лицензия

Скачать ferdinand-2017-bdrip-1080p-ot-heisenberg-nnmclub-licenziya.torrent
U Магнитная ссылка Размер: 4.37 GB Раздают: 81 Качают: 32 Добавлен: 2018-03-21 16:46:34
Фердинанд / Ferdinand (2017) BDRip 1080p от Heisenberg & NNMClub | Лицензия

Производство: США / Blue Sky Studios, Davis Entertainment, Twentieth Century Fox Animation
Жанр:  Семейный, комедия, мультфильм

Режиссер: Карлос Салдана
Продюсер: Джон Дэвис, Лиза Мэри Стетлер, Брюс Андерсон
Актеры: Джон Сина, Кейт МакКиннон, Дэвид Теннант, Бобби Каннавейл, Энтони Андерсон, Джек Гор, Джет Юргенсмейер, Найл Диас, Колин Х. Мерфи, Карлос Салдана

Описание:
Фердинанд — самый добродушный бык во всей Испании. Несмотря на внушительные размеры и недюжинную силу, он с детства предпочитал сидеть на лужайке и любоваться цветами вместо того, чтобы бодаться с другими быками. По нелепой случайности Фердинанд был выбран среди других соплеменников для участия в бое быков в Мадриде.
Фердинанду предстоит отстоять свои миролюбивые убеждения и напомнить нам о том, что даже перед лицом трудностей главное — остаться собой. Ведь только так и можно изменить мир вокруг.

Релиз от: Heisenberg | NNMClub
Продолжительность: 01:48:12
Качество: BDRip 1080p
Перевод: Дублированный (Лицензия BD EUR)
Субтитры: Русские (forced, full), Английские (full, SDH, SDH Colored)

Видео: H.264/AVC, 1920x804, (2.40:1), 4880 kbps, 23.976 fps
Аудио: AC3, 6 ch, 448 kbps - Русский
Аудио: AC3, 6 ch, 448 kbps - Английский

Скриншоты:


[+] MediaInfo:
General
Unique ID                   : 234917042079765277682764145937942707665 (0xB0BB6067785D9EEB5FB6092A9C29FDD1)
Complete name               : S:Ferdinand.2017.BDRip.1080p.NNMClub.mkv
Format                      : Matroska
Format version              : Version 4 / Version 2
File size                   : 4.37 GiB
Duration                    : 1 h 48 min
Overall bit rate            : 5 778 kb/s
Movie name                  : Ferdinand (2017) | NNMClub
Encoded date                : UTC 2018-03-21 06:28:10
Writing application         : mkvmerge v21.0.0 ('Tardigrades Will Inherit The Earth') 64-bit
Writing library             : libebml v1.3.5 + libmatroska v1.4.8
Cover                       : Yes
Attachments                 : Cover.jpg / x264.log

Video
ID                          : 1
Format                      : AVC
Format/Info                 : Advanced Video Codec
Format profile              : High@L4.1
Format settings             : CABAC / 5 Ref Frames
Format settings, CABAC      : Yes
Format settings, ReFrames   : 5 frames
Codec ID                    : V_MPEG4/ISO/AVC
Duration                    : 1 h 48 min
Bit rate                    : 4 880 kb/s
Width                       : 1 920 pixels
Height                      : 804 pixels
Display aspect ratio        : 2.40:1
Frame rate mode             : Constant
Frame rate                  : 23.976 (24000/1001) FPS
Color space                 : YUV
Chroma subsampling          : 4:2:0
Bit depth                   : 8 bits
Scan type                   : Progressive
Bits/(Pixel*Frame)          : 0.132
Stream size                 : 3.69 GiB (84%)
Writing library             : x264 core 155 r2901 7d0ff22
Encoding settings           : cabac=1 / ref=5 / deblock=1:-2:-2 / analyse=0x3:0x133 / me=umh / subme=10 / psy=1 / psy_rd=1.00:0.00 / mixed_ref=1 / me_range=32 / chroma_me=1 / trellis=2 / 8x8dct=1 / cqm=0 / deadzone=21,11 / fast_pskip=0 / chroma_qp_offset=-2 / threads=6 / lookahead_threads=1 / sliced_threads=0 / nr=0 / decimate=1 / interlaced=0 / bluray_compat=0 / constrained_intra=0 / bframes=16 / b_pyramid=2 / b_adapt=2 / b_bias=0 / direct=3 / weightb=1 / open_gop=0 / weightp=2 / keyint=240 / keyint_min=23 / scenecut=40 / intra_refresh=0 / rc_lookahead=50 / rc=2pass / mbtree=0 / bitrate=4880 / ratetol=1.0 / qcomp=0.60 / qpmin=0 / qpmax=69 / qpstep=4 / cplxblur=20.0 / qblur=0.5 / vbv_maxrate=50000 / vbv_bufsize=62500 / nal_hrd=none / filler=0 / ip_ratio=1.40 / pb_ratio=1.30 / aq=1:1.00
Language                    : English
Default                     : Yes
Forced                      : No

Audio #1
ID                          : 2
Format                      : AC-3
Format/Info                 : Audio Coding 3
Codec ID                    : A_AC3
Duration                    : 1 h 48 min
Bit rate mode               : Constant
Bit rate                    : 448 kb/s
Channel(s)                  : 6 channels
Channel positions           : Front: L C R, Side: L R, LFE
Sampling rate               : 48.0 kHz
Frame rate                  : 31.250 FPS (1536 SPF)
Bit depth                   : 16 bits
Compression mode            : Lossy
Stream size                 : 347 MiB (8%)
Title                       : Dub | Blu-ray EUR
Language                    : Russian
Service kind                : Complete Main
Default                     : Yes
Forced                      : No

Audio #2
ID                          : 3
Format                      : AC-3
Format/Info                 : Audio Coding 3
Codec ID                    : A_AC3
Duration                    : 1 h 48 min
Bit rate mode               : Constant
Bit rate                    : 448 kb/s
Channel(s)                  : 6 channels
Channel positions           : Front: L C R, Side: L R, LFE
Sampling rate               : 48.0 kHz
Frame rate                  : 31.250 FPS (1536 SPF)
Bit depth                   : 16 bits
Compression mode            : Lossy
Stream size                 : 347 MiB (8%)
Title                       : Original
Language                    : English
Service kind                : Complete Main
Default                     : No
Forced                      : No

Text #1
ID                          : 4
Format                      : UTF-8
Codec ID                    : S_TEXT/UTF8
Codec ID/Info               : UTF-8 Plain Text
Duration                    : 1 h 11 min
Bit rate                    : 0 b/s
Count of elements           : 3
Stream size                 : 37.0 Bytes (0%)
Title                       : Forced
Language                    : Russian
Default                     : Yes
Forced                      : No

Text #2
ID                          : 5
Format                      : UTF-8
Codec ID                    : S_TEXT/UTF8
Codec ID/Info               : UTF-8 Plain Text
Duration                    : 1 h 46 min
Bit rate                    : 53 b/s
Count of elements           : 1147
Stream size                 : 41.6 KiB (0%)
Title                       : Blu-ray EUR
Language                    : Russian
Default                     : No
Forced                      : No

Text #3
ID                          : 6
Format                      : UTF-8
Codec ID                    : S_TEXT/UTF8
Codec ID/Info               : UTF-8 Plain Text
Duration                    : 1 h 42 min
Bit rate                    : 48 b/s
Count of elements           : 1446
Stream size                 : 36.4 KiB (0%)
Title                       : Full
Language                    : English
Default                     : No
Forced                      : No

Text #4
ID                          : 7
Format                      : UTF-8
Codec ID                    : S_TEXT/UTF8
Codec ID/Info               : UTF-8 Plain Text
Duration                    : 1 h 43 min
Bit rate                    : 58 b/s
Count of elements           : 1826
Stream size                 : 44.2 KiB (0%)
Title                       : SDH
Language                    : English
Default                     : No
Forced                      : No

Text #5
ID                          : 8
Format                      : UTF-8
Codec ID                    : S_TEXT/UTF8
Codec ID/Info               : UTF-8 Plain Text
Duration                    : 1 h 43 min
Bit rate                    : 98 b/s
Count of elements           : 1826
Stream size                 : 74.3 KiB (0%)
Title                       : SDH-Colored
Language                    : English
Default                     : No
Forced                      : No

Menu
00:00:00.000                : :Chapter 01
00:03:37.800                : :Chapter 02
00:08:10.281                : :Chapter 03
00:11:51.460                : :Chapter 04
00:16:23.524                : :Chapter 05
00:24:14.870                : :Chapter 06
00:28:30.458                : :Chapter 07
00:34:03.124                : :Chapter 08
00:37:53.187                : :Chapter 09
00:40:54.160                : :Chapter 10
00:44:55.359                : :Chapter 11
00:49:15.994                : :Chapter 12
00:53:27.245                : :Chapter 13
00:59:40.952                : :Chapter 14
01:03:20.671                : :Chapter 15
01:06:23.270                : :Chapter 16
01:09:19.822                : :Chapter 17
01:12:18.917                : :Chapter 18
01:17:33.940                : :Chapter 19
01:20:55.058                : :Chapter 20
01:25:33.837                : :Chapter 21
01:30:38.391                : :Chapter 22
01:36:01.839                : :Chapter 23
01:38:01.166                : :Chapter 24



[+] x264 log:

x264 [info]: frame I:1221  Avg QP:14.51  size:203866
x264 [info]: frame P:36991 Avg QP:17.30  size: 53222
x264 [info]: frame B:117454 Avg QP:20.05  size: 14834
x264 [info]: consecutive B-frames:  2.6%  3.9% 10.4% 30.8% 20.6% 19.5%  4.2%  1.3%  2.3%  3.5%  0.2%  0.2%  0.1%  0.1%  0.0%  0.0%  0.3%
x264 [info]: mb I  I16..4:  4.5% 80.2% 15.4%
x264 [info]: mb P  I16..4:  2.7% 13.7%  2.0%  P16..4: 36.7% 18.1% 12.7%  0.4%  0.1%    skip:13.5%
x264 [info]: mb B  I16..4:  0.2%  1.1%  0.2%  B16..8: 35.4%  8.7%  2.0%  direct: 4.0%  skip:48.3%  L0:41.1% L1:49.0% BI: 9.9%
x264 [info]: 8x8 transform intra:74.6% inter:62.7%
x264 [info]: direct mvs  spatial:98.4% temporal:1.6%
x264 [info]: coded y,uvDC,uvAC intra: 75.2% 72.6% 41.2% inter: 15.8% 13.2% 2.2%
x264 [info]: i16 v,h,dc,p: 16% 23%  6% 55%
x264 [info]: i8 v,h,dc,ddl,ddr,vr,hd,vl,hu: 12% 12%  8%  9% 12% 12% 13% 11% 12%
x264 [info]: i4 v,h,dc,ddl,ddr,vr,hd,vl,hu: 20% 10%  4%  9% 14% 12% 13%  9% 11%
x264 [info]: i8c dc,h,v,p: 34% 31% 18% 17%
x264 [info]: Weighted P-Frames: Y:1.5% UV:1.1%
x264 [info]: ref P L0: 61.4%  8.3% 16.1%  8.0%  5.8%  0.3%  0.0%
x264 [info]: ref B L0: 82.7% 12.5%  3.9%  0.9%
x264 [info]: ref B L1: 95.3%  4.7%
x264 [info]: kb/s:4879.34



Скриншоты:
[+] Всего файлов в раздаче - 1:
Ferdinand.2017.BDRip.1080p.NNMClub.mkv4.37 GB

Текущая раздача:
ДатаКомментарии    РазмерПиры
2018-03-21 U Фердинанд / Ferdinand (2017) BDRip 1080p от Heisenberg & NNMClub | Лицензия 4.37 GB ↑ 81 ↓ 32

Показать еще раздачи по запросу фердинанд:
2018-04-08 U Фердинанд / Ferdinand (2017) BDRip-HEVC 1080p | 60 fps | Лицензия 5.82 GB ↑ 54 ↓ 29
2018-03-20 U Фердинанд / Ferdinand (2017) BDRip 720p от Scarabey | Лицензия 3.76 GB ↑ 135 ↓ 25
2018-03-19 U Фердинанд / Ferdinand (2017) BDRip от ExKinoRay | Лицензия 2.18 GB ↑ 112 ↓ 27
2018-03-18 U Фердинанд / Ferdinand (2017) HDRip от Scarabey | Лицензия 745.36 MB ↑ 144 ↓ 27
2018-03-18 U Фердинанд / Ferdinand (2017) HDRip от Scarabey | Лицензия 1.45 GB ↑ 96 ↓ 39
2018-03-17 U Фердинанд / Ferdinand (2017) BDRip-HEVC 1080p от M@kSIMus 4.31 GB ↑ 67 ↓ 29
2018-03-17 U Фердинанд / Ferdinand (2017) BDRip от ExKinoRay | Лицензия 1.46 GB ↑ 271 ↓ 95

Отзывы
Зарегистрируйтесь чтобы добавить комментарий.
Обратная связь
Copyleft ©