↑↓Torrent.by
Поиск
Логин: Регистрация
Пароль: Восстановить пароль
Загрузка...

Однажды в России [07x01-04] (2018) WEBRip 720p от OlLanDGroup

Скачать odnazhdy-v-rossii-07x01-04-2018-webrip-720p-ot-ollandgroup.torrent
U Магнитная ссылка Размер: 4.92 GB Раздают: 33 Качают: 32 Добавлен: 2018-03-24 08:05:48
Однажды в России [07x01-04] (2018) WEBRip 720p от OlLanDGroup

Оригинальное название: Однажды в России
Год выхода: 2018
Жанр:  ТВ-шоу, юмор
Выпущено: Россия, ТНТ, Comedy Club Production
В ролях:Игорь Ласточкин,  Михаил Стогниенко, Давид Цаллаев, Заур Байцаев, Теймураз Тания, Екатерина Моргунова, Максим Киселёв, Денис Дорохов, Александр Пташенчук, Азамат Мусагалиев, Ольга Картункова

Описание фильма:
Самое острое сатирическое шоу на отечественном телевидении возвращается с новыми выпусками. Все, что нужно знать о России и чего никогда не покажут в новостях. Московский ОМОН ловит в центре столицы покемонов, российские ученые впервые в мире провели операцию по пересадке сознания, в России снимут адаптацию сериала «Игры престолов» и откроют филиал школы магов Хогвардс. Все это и многое другое в новых выпусках «Однажды в России», — шоу, сделанном на невероятном для российского телевидения техническом уровне, и продолжающем традицию сатиры и социального юмора на ТНТ.

Информация о файле:
Кодек: AVC
Качество: WEBRip 720p
Свойства видео: 1280x720 (16:9), 25 fps, х264, 3521 Kbps, 0.153 bit/pixel
Свойства аудио: 48,0 kHz, Audio Coding 3, 2 ch, ~192 kbps avg

Продолжительность:  ~ 00:50:00
Язык: Русский

Релиз:
[+] Инфо файл
Общее
Уникальный идентификатор                 : 179387232467636816232018999276528513047 (0x86F4B9696EA43227AA067B524D18B017)
Полное имя                               : D:ВидеоOdnazhdy.v.Rossii 7.2017.WEB-Rip720p.OlLanDGroupOdnazhdy.v.Rossii 7.seriya 01.2018.WEBRip720p.OlLanDGroup.mkv
Формат                                   : Matroska
Версия формата                           : Version 4 / Version 2
Размер файла                             : 1,23 Гбайт
Продолжительность                        : 46 м.
Общий поток                              : 3787 Кбит/сек
Название фильма                          : Odnazhdy.v.Rossii 7.seriya 01.2018.WEB-.OlLanDGroup
Дата кодирования                         : UTC 2018-03-02 14:21:02
Программа кодирования                    : mkvmerge v21.0.0 ('Tardigrades Will Inherit The Earth') 64-bit
Библиотека кодирования                   : libebml v1.3.5 + libmatroska v1.4.8
DURATION                                 : 00:46:20.096000000
NUMBER_OF_FRAMES                         : 86878
NUMBER_OF_BYTES                          : 66722304
_STATISTICS_WRITING_APP                  : mkvmerge v21.0.0 ('Tardigrades Will Inherit The Earth') 64-bit
_STATISTICS_WRITING_DATE_UTC             : 2018-03-02 14:21:02
_STATISTICS_TAGS                         : BPS DURATION NUMBER_OF_FRAMES NUMBER_OF_BYTES
Attachment                               : Yes

Видео
Идентификатор                            : 1
Формат                                   : AVC
Формат/Информация                        : Advanced Video Codec
Профиль формата                          : High@L3.1
Параметр CABAC формата                   : Да
Параметр ReFrames формата                : 1 кадр
Параметр GOP формата                     : M=1, N=12
Идентификатор кодека                     : V_MPEG4/ISO/AVC
Продолжительность                        : 46 м.
Битрейт                                  : 3519 Кбит/сек
Ширина                                   : 1280 пикселей
Высота                                   : 720 пикселей
Соотношение сторон                       : 16:9
Режим частоты кадров                     : Постоянный
Частота кадров                           : 25,000 кадров/сек
Стандарт вещания                         : Component
Цветовое пространство                    : YUV
Субдискретизация насыщенности            : 4:2:0
Битовая глубина                          : 8 бит
Тип развёртки                            : Прогрессивная
Бит/(Пиксели*Кадры)                      : 0.153
Размер потока                            : 1,14 Гбайт (93%)
Заголовок                                : OlLanDGroup
Язык                                     : Russian
Default                                  : Да
Forced                                   : Нет

Аудио
Идентификатор                            : 2
Формат                                   : AC-3
Формат/Информация                        : Audio Coding 3
Расширение режима                        : CM (complete main)
Параметр Endianness формата              : Big
Идентификатор кодека                     : A_AC3
Продолжительность                        : 46 м.
Вид битрейта                             : Постоянный
Битрейт                                  : 192 Кбит/сек
Каналы                                   : 2 канала
Расположение каналов                     : Front: L R
Частота                                  : 48,0 КГц
Битовая глубина                          : 16 бит
Метод сжатия                             : С потерями
Размер потока                            : 63,6 Мбайт (5%)
Язык                                     : Russian
Default                                  : Да
Forced                                   : Нет




Скриншоты:
[+] Всего файлов в раздаче - 4:
Odnazhdy.v.Rossii 7.seriya 01.2018.WEBRip720p.OlLanDGroup.mkv1.23 GB
Odnazhdy.v.Rossii 7.seriya 02.2018.WEBRip720p.OlLanDGroup.mkv1.22 GB
Odnazhdy.v.Rossii 7.seriya 03.2018.WEBRip 720p.OlLanDGroup.mkv1.25 GB
Odnazhdy.v.Rossii 7.seriya 04.2018.WEBRip720p.OlLanDGroup.mkv1.23 GB

Текущая раздача:
ДатаКомментарии    РазмерПиры
2018-03-24 U Однажды в России [07x01-04] (2018) WEBRip 720p от OlLanDGroup 4.92 GB ↑ 33 ↓ 32

Показать еще раздачи по запросу однажды:
2018-05-20 U Однажды в России [07x01-08] (2018) WEBRip от OlLanDGroup 4.88 GB ↑ 61 ↓ 199
2018-04-30 U Однажды в России [07x01-07] (2018) WEBRip от OlLanDGroup 4.26 GB ↑ 57 ↓ 188
2018-04-24 U Однажды в России [07x01-06] (2018) WEBRip 720p от OlLanDGroup 7.34 GB ↑ 25 ↓ 45
2018-04-23 U Однажды в России [07x01-06] (2018) WEBRip от OlLanDGroup 3.69 GB ↑ 39 ↓ 85
2018-04-11 U Однажды в России [07x01-05] (2018) WEBRip от OlLanDGroup 3.08 GB ↑ 120 ↓ 66
2018-03-25 U Однажды в России [07x01-04] (2018) WEBRip от OlLanDGroup 2.47 GB ↑ 52 ↓ 54
2018-03-23 U Однажды явится мой принц... наверное / Un jour mon prince (2016) HDTVRip | GreenРай Studio 1.97 GB ↑ 86 ↓ 24

Отзывы
Зарегистрируйтесь чтобы добавить комментарий.
Обратная связь
Copyleft ©