↑↓Torrent.by
Поиск
Логин: Регистрация
Пароль: Восстановить пароль
Загрузка...

Константин / Constantine [01x01-05 из 10] (2018) WEBRip 720p | ColdFilm

Скачать konstantin-constantine-01x01-05-iz-10-2018-webrip-720p-coldfilm.torrent
U Магнитная ссылка Размер: 914.79 MB Раздают: 101 Качают: 13 Добавлен: 2018-03-25 14:32:55
Константин / Constantine [01x01-05 из 10] (2018) WEBRip 720p | ColdFilm

Название: Константин
Оригинальное название: Constantine
Год выпуска: 2018
Жанр:  Мультфильм, ужасы, фэнтези
Режиссер: Дэвид С. Гойер, Сэм Реджистер, Сара Шечтер
В ролях: Мэтт Райан

О фильме:
Силы тьмы опять наступают, постоянно проникая в его мир. Сможет ли он остановить их? Ему предстоит жестокое сражение самыми ужасными чудовищами, и чем оно закончится, не знает даже Бог, который пока не собирается прощать его.

 
Страна: США
Студия: DC Entertainment
Продолжительность: 1 x ~00:30:00
Перевод: Любительский многоголосый [ColdFilm]

Файл
Кодек: x.264 (AVC)
Качество: WEBRip 720p
Видео:~4000 Кбит/с, 1280x720, 25.000 fps
Аудио: Русский (AC3, 2 ch, 192 Кбит/с)

Релиз:


[+] MediaInfo

General
Unique ID                   : 172610680513294321850565746764072557138 (0x81DB9B9AE375C12C984D8B0EF8071A52)
Complete name               : D:Constantine.S01E01E05.720p.ColdFilm.mkv
Format                      : Matroska
Format version              : Version 2
File size                   : 915 MiB
Duration                    : 30 min 43 s
Overall bit rate            : 4 162 kb/s
Encoded date                : UTC 2018-03-24 22:29:13 / UTC 2017-11-20 18:25:40
Writing application         : mkvmerge v3.3.0 ('Language') built on Mar 24 2010 14:59:24
Writing library             : libebml v0.8.0 + libmatroska v0.9.0 / Lavf54.63.104

Video
ID                          : 1
Format                      : AVC
Format/Info                 : Advanced Video Codec
Format profile              : Main@L3.1
Format settings             : CABAC / 1 Ref Frames
Format settings, CABAC      : Yes
Format settings, ReFrames   : 1 frame
Codec ID                    : V_MPEG4/ISO/AVC
Duration                    : 30 min 43 s
Bit rate                    : 4 000 kb/s
Width                       : 1 280 pixels
Height                      : 720 pixels
Display aspect ratio        : 16:9
Frame rate mode             : Constant
Frame rate                  : 25.000 FPS
Color space                 : YUV
Chroma subsampling          : 4:2:0
Bit depth                   : 8 bits
Scan type                   : Progressive
Bits/(Pixel*Frame)          : 0.174
Stream size                 : 854 MiB (93%)
Writing library             : x264 core 129
Encoding settings           : cabac=1 / ref=1 / deblock=1:0:0 / analyse=0x1:0x131 / me=dia / subme=2 / psy=1 / psy_rd=1.00:0.00 / mixed_ref=0 / me_range=16 / chroma_me=1 / trellis=0 / 8x8dct=0 / cqm=0 / deadzone=21,11 / fast_pskip=1 / chroma_qp_offset=0 / threads=4 / lookahead_threads=1 / sliced_threads=0 / nr=0 / decimate=1 / interlaced=0 / bluray_compat=0 / constrained_intra=0 / bframes=0 / weightp=2 / keyint=250 / keyint_min=25 / scenecut=40 / intra_refresh=0 / rc_lookahead=40 / rc=abr / mbtree=1 / bitrate=4000 / ratetol=1.0 / qcomp=0.60 / qpmin=10 / qpmax=51 / qpstep=4 / ip_ratio=1.41 / aq=1:1.00
Default                     : No
Forced                      : No

Audio
ID                          : 2
Format                      : AC-3
Format/Info                 : Audio Coding 3
Codec ID                    : A_AC3
Duration                    : 30 min 43 s
Bit rate mode               : Constant
Bit rate                    : 192 kb/s
Channel(s)                  : 2 channels
Channel positions           : Front: L R
Sampling rate               : 48.0 kHz
Frame rate                  : 31.250 FPS (1536 SPF)
Bit depth                   : 16 bits
Compression mode            : Lossy
Stream size                 : 42.2 MiB (5%)
Service kind                : Complete Main
Default                     : Yes
Forced                      : No




Скриншоты:
[+] Всего файлов в раздаче - 1:
Constantine.S01E01E05.720p.ColdFilm.mkv914.79 MB

Текущая раздача:
ДатаКомментарии    РазмерПиры
2018-03-25 U Константин / Constantine [01x01-05 из 10] (2018) WEBRip 720p | ColdFilm 914.79 MB ↑ 101 ↓ 13

Показать еще раздачи по запросу константин:
2018-11-06 U Калбазов Константин - Шаман 3. В шаге от дома (2018) MP3 624.55 MB ↑ 56 ↓ 10
2018-10-12 U Константин: Город демонов / Constantine: City of Demons (2018) HDRip 720p | ColdFilm 2.00 GB ↑ 90 ↓ 21
2018-10-12 U Константин: Город демонов / Constantine: City of Demons (2018) HDRip | ColdFilm 802.08 MB ↑ 149 ↓ 13
2018-10-11 U Константин: Город демонов / Constantine: City of Demons (2018) HDRip 1080p | ColdFilm 2.95 GB ↑ 189 ↓ 32
2018-09-11 U Калбазов Константин - Фаворит 4. Полководец (2018) MP3 473.33 MB ↑ 47 ↓ 6
2018-09-06 U Калбазов Константин - Сборник произведений [47 книг] (2012-2018) FB2 69.53 MB ↑ 94 ↓ 9
2018-08-26 U Константин Никольский - Любимые песни.RU (2006) MP3 1К165.69 MB ↑ 214 ↓ 32

Отзывы
Зарегистрируйтесь чтобы добавить комментарий.
Обратная связь
Copyleft ©