↑↓Torrent.by
Поиск
Логин: Регистрация
Пароль: Восстановить пароль
Загрузка...

Лёд (2018) WEB-DL 1080p | iTunes

Скачать led-2018-web-dl-1080p-itunes.torrent
U Магнитная ссылка Размер: 4.05 GB Раздают: 2299 Качают: 516 Добавлен: 2018-03-28 09:39:57
Лёд (2018) WEB-DL 1080p | iTunes

«Весна близко»

Название: Лёд
Год выхода: 2018
Жанр:  Мелодрама, драма, спорт
Режиссер: Олег Трофим
В ролях: Аглая Тарасова, Диана Енакаева, Мария Аронова, Александр Петров, Милош Бикович, Ян Цапник, Ксения Раппопорт, Ксения Лаврова-Глинка, Павел Майков, Максим Белбородов

О фильме:
С самого детства Надя верила в чудеса. Она представляла себе, как выходит на лёд под овации публики и танцует свой самый красивый танец. И вот, благодаря вере и упорству, Надя становится знаменитой фигуристкой. Но когда ее мечты о громких победах, красивой жизни и прекрасном принце уже, кажется, готовы исполниться, судьба преподносит ей настоящее испытание. И чтобы его пройти, нужно будет снова, как в детстве, поверить в мечту. Ведь, может быть, победа не всегда должна быть громкой, а прекрасный принц не обязательно передвигается на белом коне?..

Страна: Россия
Студия: Телеканал «РОССИЯ 1», Кинокомпания «Водород», Art Pictures Studio
Продолжительность: 01:57:51
Перевод: Не требуется | iTunes

Файл
Качество: WEB-DL 1080p
Кодек: MPEG-4 AVC
Видео: 1920x800 (2.40:1), 23.976 fps, MPEG-4 AVC ~ 4534 kbps avg, 0.123 bit/pixel
Аудио: AC3, 48 kHz, 6 ch, ~384.00 kbps avg | русский | iTunes

Субтитры: Отсутствуют


[+] Инфо-файл
Общее
Уникальный идентификатор                 : 239244446266043670349070319261734486234 (0xB3FCCDE7355FEAFBA824208D6DA140DA)
Полное имя                               : ICE_2018_WEB_DL_1080p.mkv
Формат                                   : Matroska
Версия формата                           : Version 2
Размер файла                             : 4,05 Гбайт
Продолжительность                        : 1 ч. 57 м.
Общий поток                              : 4920 Кбит/сек
Дата кодирования                         : UTC 2018-03-27 18:09:00
Программа кодирования                    : mkvmerge v8.3.0 ('Over the Horizon') 64bit
Библиотека кодирования                   : libebml v1.3.1 + libmatroska v1.4.2

Видео
Идентификатор                            : 1
Формат                                   : AVC
Формат/Информация                        : Advanced Video Codec
Профиль формата                          : High@L4
Настройки формата                        : CABAC / 5 Ref Frames
Параметр CABAC формата                   : Да
Параметр ReFrames формата                : 5 кадров
Идентификатор кодека                     : V_MPEG4/ISO/AVC
Продолжительность                        : 1 ч. 57 м.
Битрейт                                  : 4534 Кбит/сек
Ширина                                   : 1920 пикселей
Высота                                   : 800 пикселей
Соотношение сторон                       : 2,40:1
Режим частоты кадров                     : Постоянный
Частота кадров                           : 23,976 (23976/1000) кадра/сек
Цветовое пространство                    : YUV
Субдискретизация насыщенности            : 4:2:0
Битовая глубина                          : 8 бит
Тип развёртки                            : Прогрессивная
Бит/(Пиксели*Кадры)                      : 0.123
Размер потока                            : 3,73 Гбайт (92%)
Язык                                     : English
Default                                  : Да
Forced                                   : Нет
Цветовой диапазон                        : Limited
Основные цвета                           : BT.709
Характеристики трансфера                 : BT.709
Коэффициенты матрицы                     : BT.709

Аудио
Идентификатор                            : 2
Формат                                   : AC-3
Формат/Информация                        : Audio Coding 3
Идентификатор кодека                     : A_AC3
Продолжительность                        : 1 ч. 57 м.
Вид битрейта                             : Постоянный
Битрейт                                  : 384 Кбит/сек
Каналы                                   : 6 каналов
Расположение каналов                     : Front: L C R, Side: L R, LFE
Частота                                  : 48,0 КГц
Частота кадров                           : 31,250 кадров/сек (1536 SPF)
Битовая глубина                          : 16 бит
Метод сжатия                             : С потерями
Размер потока                            : 324 Мбайт (8%)
Язык                                     : Russian
Default                                  : Да
Forced                                   : Нет

Меню
00:00:00.000                             : en:1
00:07:48.301                             : en:2
00:13:18.089                             : en:3
00:22:37.606                             : en:4
00:28:37.090                             : en:5
00:37:43.845                             : en:6
00:43:55.716                             : en:7
00:51:19.993                             : en:8
00:56:57.580                             : en:9
01:05:08.279                             : en:10
01:12:38.687                             : en:11
01:20:38.083                             : en:12
01:27:28.243                             : en:13
01:34:14.357                             : en:14
01:42:28.517                             : en:15
01:48:50.357                             : en:16



Скриншоты:
[+] Всего файлов в раздаче - 1:
ICE_2018_WEB_DL_1080p.mkv4.05 GB

Текущая раздача:
ДатаКомментарии    РазмерПиры
2018-03-28 U Лёд (2018) WEB-DL 1080p | iTunes 4.05 GB ↑ 2299 ↓ 516

Показать еще раздачи по запросу itunes:
Сегодня U Простая просьба / A Simple Favor (2018) HDRip от Generalfilm | КПК | iTunes 444.07 MB ↑ 55 ↓ 13
Сегодня U Захочу и соскочу / Smetto quando voglio (2014) BDRemux 1080p | iTunes 17.66 GB ↑ 45 ↓ 18
Сегодня U Опасный пассажир / Поездка / Ride (2018) BDRip 720p от k.e.n & MegaPeer | iTunes 2.83 GB ↑ 56 ↓ 10
Сегодня U Простая просьба / A Simple Favor (2018) BDRemux 1080p от селезень | iTunes 22.73 GB ↑ 75 ↓ 85
Сегодня U Простая просьба / A Simple Favor (2018) BDRip-AVC от OlLanDGroup | iTunes 2.45 GB ↑ 65 ↓ 37
Сегодня U Захочу и соскочу / Smetto quando voglio (2014) BDRip 720p | iTunes 5.29 GB ↑ 73 ↓ 27
Сегодня U Захочу и соскочу / Smetto quando voglio (2014) BDRip 1080p | iTunes 8.68 GB ↑ 89 ↓ 31

Отзывы
Зарегистрируйтесь чтобы добавить комментарий.
Обратная связь
Copyleft ©