↑↓Torrent.by
Поиск
Логин: Регистрация
Пароль: Восстановить пароль
Загрузка...

Лёд (2018) WEB-DLRip | iTunes

Скачать led-2018-web-dlrip-itunes.torrent
U Магнитная ссылка Размер: 2.18 GB Раздают: 202 Качают: 104 Добавлен: 2018-03-28 11:55:23
Лёд (2018) WEB-DLRip | iTunes

Лёд

Страна: Россия
Производство: Телеканал «РОССИЯ 1», Кинокомпания «Водород», Art Pictures Studio
Год выпуска: 2018
Жанр:  мелодрама, драма, спорт
Продолжительность: 01:57:51

Режиссер: Олег Трофим
Авторы сценария: Андрей Золотарев, Олег Маловичко

В ролях: Аглая Тарасова, Диана Енакаева, Мария Аронова, Александр Петров, Милош Бикович, Ян Цапник, Ксения Раппопорт, Павел Майков

Описание: С самого детства Надя верила в чудеса. Она представляла себе, как выходит на лёд под овации публики и танцует свой самый красивый танец. И вот, благодаря вере и упорству, Надя становится знаменитой фигуристкой. Но когда ее мечты о громких победах, красивой жизни и прекрасном принце уже, кажется, готовы исполниться, судьба преподносит ей настоящее испытание. И чтобы его пройти, нужно будет снова, как в детстве, поверить в мечту. Ведь, может быть, победа не всегда должна быть громкой, а прекрасный принц не обязательно передвигается на белом коне..?

Перевод: не требуется (оригинал) | iTunes
Субтитры: нет

Качество: WEB-DLRip | исходник ICE_2018_WEB_DL_1080p | BLUEBIRD
Формат: АVI
Видео кодек: XviD
Аудио кодек: АС3
Видео: 720x304 (2.35:1), 23.976 fps, XviD build 73 ~2 252 kbps avg
Аудио: 48 kHz, AC3 Dolby Digital, 3/2 (L,C,R,l,r) + LFE ch, ~384 kbps

Дата премьеры (РФ): 14 февраля 2018, «WDSSPR»

Семпл


[+] Media Info
General
Format                      : AVI
Format/Info                 : Audio Video Interleave
Format profile              : OpenDML
File size                   : 2.18 GiB
Duration                    : 1 h 57 min
Overall bit rate            : 2 648 kb/s
Writing application         : VirtualDubMod 1.5.10.3 | (build 2550/release)
Writing library             : VirtualDubMod build 2550/release
Video
ID                          : 0
Format                      : MPEG-4 Visual
Format profile              : Advanced Simple@L5
Format settings             : BVOP1 / Custom Matrix
Format settings, BVOP       : 1
Format settings, QPel       : No
Format settings, GMC        : No warppoints
Format settings, Matrix     : Custom
Codec ID                    : XVID
Codec ID/Hint               : XviD
Duration                    : 1 h 57 min
Bit rate                    : 2 252 kb/s
Width                       : 720 pixels
Height                      : 304 pixels
Display aspect ratio        : 2.35:1
Frame rate                  : 23.976 (24000/1001) FPS
Color space                 : YUV
Chroma subsampling          : 4:2:0
Bit depth                   : 8 bits
Scan type                   : Progressive
Compression mode            : Lossy
Bits/(Pixel*Frame)          : 0.429
Stream size                 : 1.85 GiB (85%)
Writing library             : XviD 73

Audio
ID                          : 1
Format                      : AC-3
Format/Info                 : Audio Coding 3
Codec ID                    : 2000
Duration                    : 1 h 57 min
Bit rate mode               : Constant
Bit rate                    : 384 kb/s
Channel(s)                  : 6 channels
Channel positions           : Front: L C R, Side: L R, LFE
Sampling rate               : 48.0 kHz
Frame rate                  : 31.250 FPS (1536 SPF)
Bit depth                   : 16 bits
Compression mode            : Lossy
Stream size                 : 324 MiB (15%)
Alignment                   : Split accross interleaves
Interleave, duration        : 42  ms (1.00 video frame)
Interleave, preload duratio : 500  ms
Service kind                : Complete Main



Скриншоты:
[+] Всего файлов в раздаче - 1:
Лёд_2018_WEB-DLRip.avi2.18 GB

Текущая раздача:
ДатаКомментарии    РазмерПиры
2018-03-28 U Лёд (2018) WEB-DLRip | iTunes 2.18 GB ↑ 202 ↓ 104

Показать еще раздачи по запросу dlrip:
Вчера U Детство Шелдона / Young Sheldon [01x01-18 из 22] (2017) WEB-DLRip | Кураж-Бамбей 4.87 GB ↑ 36 ↓ 74
Вчера U Древние / The Originals [05х01 из 13] (2018) WEB-DLRip | LostFilm 530.54 MB ↑ 48 ↓ 4
Вчера U Все о его бывшей [01-02 из 02] (2017) WEB-DLRip-AVC от Files-x 1.23 GB ↑ 40 ↓ 9
Вчера U Неприличное везение / Outrageous Fortune (1987) WEB-DLRip от Koenig | D 1.45 GB ↑ 40 ↓ 18
Вчера U Вся наша надежда (2017) WEB-DLRip от Portablius 2К699.22 MB ↑ 41 ↓ 12
Вчера U Все о его бывшей [01-02 из 02] (2017) WEB-DLRip от Files-x 1.17 GB ↑ 51 ↓ 20
2018-04-20 U Берёзка [01-16 из 16] (2018) WEB-DLRip-AVC от Files-x 10.45 GB ↑ 74 ↓ 218

Отзывы
Зарегистрируйтесь чтобы добавить комментарий.
Обратная связь
Copyleft ©