↑↓Torrent.by
Поиск
Логин: Регистрация
Пароль: Восстановить пароль
Загрузка...

Амун (2016) WEB-DL 1080p | iTunes

Скачать amun-2016-web-dl-1080p-itunes.torrent
U Магнитная ссылка Размер: 2.83 GB Раздают: 125 Качают: 24 Добавлен: 2018-03-29 09:05:04
Амун (2016) WEB-DL 1080p | iTunes

Название: Амун
Год выхода: 2016
Жанр: Драма
Выпущено: Россия, ТПО "Рок"
Перевод: Субтитры на другие языки
Продолжительность: 01:23:04
Режиссер: Анар Аббасов
В ролях: Алексей Филимонов, Юрий Назаров, Владимир Торопов, Ольга Филимонова, Джордж Искандар, Абдрахман Нджум, Карлос Гарзузи, Гидеон Сургер, Арафат Кабн и др.

О фильме: Семейная трагедия заставляет ярого скептика и реалиста Петра отправиться в самое сердце Иудейской пустыни на поиски мистического старца Амуна, по слухам, обладающего даром целителя. Раскаленные пески становятся той стихией, которая испытает принципы Петра на прочность, подвергнув его библейским искушениям. Здесь можно продержаться без воды, но без веры выжить невозможно. Миражи смешиваются с обрывками прошлого, мысли — с чувствами. И главный герой через самопожертвование учится заново жить.

Файл
Качество: WEB-DL 1080p
Видео: MPEG-4 AVC, 1920x802, 4496 kbps, 24,000 fps
Звук: Русский, AC3, 6 ch, 48 kHz, 384 kbps
Субтитры: Русские
[+] MI
Общее
Уникальный идентификатор                 : 200051966969090756439652403784758050644 (0x96809B7C125A8D179EB8E3B2DF9BBF54)
Полное имя                               : H:Deluge торрентыАмун (1080p HD).mkv
Формат                                   : Matroska
Версия формата                           : Version 4 / Version 2
Размер файла                             : 2,83 Гбайт
Продолжительность                        : 1 ч. 23 м.
Общий поток                              : 4882 Кбит/сек
Дата кодирования                         : UTC 2018-03-27 13:25:05
Программа кодирования                    : mkvmerge v9.5.0 ('Quiet Fire') 64bit
Библиотека кодирования                   : libebml v1.3.4 + libmatroska v1.4.5

Видео
Идентификатор                            : 1
Формат                                   : AVC
Формат/Информация                        : Advanced Video Codec
Профиль формата                          : High@L4
Настройки формата                        : CABAC / 5 Ref Frames
Параметр CABAC формата                   : Да
Параметр RefFrames формата               : 5 кадров
Идентификатор кодека                     : V_MPEG4/ISO/AVC
Продолжительность                        : 1 ч. 23 м.
Битрейт                                  : 4496 Кбит/сек
Ширина                                   : 1920 пикселей
Высота                                   : 802 пикселя
Соотношение сторон                       : 2,40:1
Режим частоты кадров                     : Постоянный
Частота кадров                           : 24,000 кадра/сек
Цветовое пространство                    : YUV
Субдискретизация насыщенности            : 4:2:0
Битовая глубина                          : 8 бит
Тип развёртки                            : Прогрессивная
Бит/(Пиксели*Кадры)                      : 0.122
Размер потока                            : 2,61 Гбайт (92%)
Язык                                     : English
Default                                  : Да
Forced                                   : Нет
Цветовой диапазон                        : Limited
Основные цвета                           : BT.709
Характеристики трансфера                 : BT.709
Коэффициенты матрицы                     : BT.709

Аудио
Идентификатор                            : 2
Формат                                   : AC-3
Формат/Информация                        : Audio Coding 3
Идентификатор кодека                     : A_AC3
Продолжительность                        : 1 ч. 23 м.
Вид битрейта                             : Постоянный
Битрейт                                  : 384 Кбит/сек
Каналы                                   : 6 каналов
Расположение каналов                     : Front: L C R, Side: L R, LFE
Частота                                  : 48,0 КГц
Частота кадров                           : 31,250 кадров/сек (1536 SPF)
Битовая глубина                          : 16 бит
Метод сжатия                             : С потерями
Размер потока                            : 228 Мбайт (8%)
Язык                                     : Russian
Default                                  : Да
Forced                                   : Нет

Текст
Идентификатор                            : 3
Формат                                   : UTF-8
Идентификатор кодека                     : S_TEXT/UTF8
Идентификатор кодека/Информация          : UTF-8 Plain Text
Продолжительность                        : 1 ч. 14 м.
Битрейт                                  : 19 бит/сек
ElementCount                             : 307
Размер потока                            : 10,7 Кбайт (0%)
Default                                  : Да
Forced                                   : Нет

Меню
00:00:00.000                             : en:Глава 1
00:06:14.416                             : en:Глава 2
00:11:52.374                             : en:Глава 3
00:16:52.082                             : en:Глава 4
00:20:47.123                             : en:Глава 5
00:26:09.289                             : en:Глава 6
00:30:07.455                             : en:Глава 7
00:37:14.121                             : en:Глава 8
00:44:29.912                             : en:Глава 9
00:48:18.453                             : en:Глава 10
00:52:32.536                             : en:Глава 11
00:58:45.077                             : en:Глава 12
01:04:03.618                             : en:Глава 13
01:10:11.993                             : en:Глава 14




Скриншоты:
[+] Всего файлов в раздаче - 1:
Амун (1080p HD).mkv2.83 GB

Отзывы
Зарегистрируйтесь чтобы добавить комментарий.
Обратная связь
Copyleft ©