↑↓Torrent.by
Поиск
Логин: Регистрация
Пароль: Восстановить пароль
Загрузка...

Ловушка для кошек / Macskafogó (1986) DVDRip-AVC от ExKinoRay | D

Скачать lovushka-dlya-koshek-macskafog-1986-dvdrip-avc-ot-exkinoray-d.torrent
U Магнитная ссылка Размер: 746.72 MB Раздают: 378 Качают: 23 Добавлен: 2018-04-03 15:21:47
Ловушка для кошек / Macskafogó (1986) DVDRip-AVC от ExKinoRay | D

Название: Ловушка для кошек
Оригинальное название: Macskafogó / Cat City
Год выхода: 1986
Жанр:  Мультфильм, комедия, приключения
Режиссер: Бела Терновски / Béla Ternovszky
В ролях: Миклош Бенедек, Дьюла Бодроги, Илона Береш, Петер Хауманн, Андраш Керн, Ференц Каллаи, János Körmendi, Иштван Мико, Карой Мекс, Вера Пап
Роли дублировали: Всеволод Ларионов, Роман Ткачук, Александр Белявский, Надежда Румянцева, Алла Будницкая, Владимир Ферапонтов, Герман Качин, Валерий Рыжаков

О фильме :
Кошачьи банды, объединившись в преступные группировки, готовятся к решающей битве с мышами. Мыши, узнав об этом, сначала загрустили, но потом стало известно, что некий профессор Фусимиси изобрел аппарат, позволяющий сделать кошек беспомощными. В путь к профессору отправляется лучший мышиный агент. Коты через своих осведомителей получают сведения об опасности, и за мышиным агентом отправляются крысы-убийцы…

Дополнительная информация :
Это полная версия мультфильма — в советском прокате было вырезано около 7 минут, которые здесь переведены и озвучены.

Страна: Венгрия, Германия, Канада
Продолжительность: 01:31:45
Перевод: Профессиональный (полное дублирование) + Любительский (многоголосый) на вырезанные эпизоды

Файл
Формат: MKV
Качество: DVDRip-AVC
Видео: MPEG-4 AVC, 704x512, ~ 1060 Кбит/с
Аудио:  AAC-HE, 2 ch, ~ 76 Кбит/с

Релиз:


[+] MI
Общее
Уникальный идентификатор : 231987657084361806223106904481106731531 (0xAE873292AEC8210C850A3CC94A1FA20B)
Полное имя : D:MOVIESMacskafogo.1986.ExKinoRay.mkv
Формат : Matroska
Версия формата : Version 4 / Version 2
Размер файла : 747 Мбайт
Продолжительность : 1 ч. 31 м.
Общий поток : 1138 Кбит/сек
Дата кодирования : UTC 2018-04-03 04:59:09
Программа кодирования : mkvmerge v15.0.0 ('Duel with the Devil') 64-bit
Библиотека кодирования : libebml v1.3.5 + libmatroska v1.4.5

Видео
Идентификатор : 1
Формат : AVC
Формат/Информация : Advanced Video Codec
Профиль формата : High@L4.1
Параметр CABAC формата : Да
Параметр RefFrames формата : 10 кадров
Идентификатор кодека : V_MPEG4/ISO/AVC
Продолжительность : 1 ч. 31 м.
Битрейт : 1060 Кбит/сек
Ширина : 704 пикселя
Высота : 512 пикселей
Соотношение сторон : 1,375
Режим частоты кадров : Постоянный
Частота кадров : 25,000 кадров/сек
Цветовое пространство : YUV
Субдискретизация насыщенности : 4:2:0
Битовая глубина : 8 бит
Тип развёртки : Прогрессивная
Бит/(Пиксели*Кадры) : 0.118
Размер потока : 696 Мбайт (93%)
Библиотека кодирования : x264 core 155 r2901 7d0ff22
Настройки программы : cabac=1 / ref=10 / deblock=1:-3:-3 / analyse=0x3:0x133 / me=umh / subme=11 / psy=1 / psy_rd=1.00:0.12 / mixed_ref=1 / me_range=32 / chroma_me=1 / trellis=2 / 8x8dct=1 / cqm=0 / deadzone=21,11 / fast_pskip=0 / chroma_qp_offset=-3 / threads=6 / lookahead_threads=1 / sliced_threads=0 / nr=0 / decimate=0 / interlaced=0 / bluray_compat=0 / constrained_intra=0 / bframes=10 / b_pyramid=2 / b_adapt=2 / b_bias=0 / direct=3 / weightb=1 / open_gop=0 / weightp=2 / keyint=250 / keyint_min=24 / scenecut=40 / intra_refresh=0 / rc_lookahead=40 / rc=2pass / mbtree=1 / bitrate=1060 / ratetol=1.0 / qcomp=0.60 / qpmin=0 / qpmax=69 / qpstep=4 / cplxblur=20.0 / qblur=0.5 / vbv_maxrate=50000 / vbv_bufsize=62500 / nal_hrd=none / filler=0 / ip_ratio=1.40 / aq=3:1.00
Default : Да
Forced : Нет

Аудио
Идентификатор : 2
Формат : AAC
Формат/Информация : Advanced Audio Codec
Профиль формата : HE-AAC / LC
Идентификатор кодека : A_AAC
Продолжительность : 1 ч. 31 м.
Битрейт : 76,0 Кбит/сек
Каналы : 2 канала
Расположение каналов : Front: L R
Частота : 48,0 КГц / 24,0 КГц
Частота кадров : 23,438 кадра/сек (1024 SPF)
Метод сжатия : С потерями
Задержка видео : 31 мс.
Размер потока : 49,9 Мбайт (7%)
Default : Да
Forced : Нет



Скриншоты:
[+] Всего файлов в раздаче - 1:
Macskafogo.1986.ExKinoRay.mkv746.72 MB

Текущая раздача:
ДатаКомментарии    РазмерПиры
2018-04-03 U Ловушка для кошек / Macskafogó (1986) DVDRip-AVC от ExKinoRay | D 746.72 MB ↑ 378 ↓ 23

Показать еще раздачи по запросу ловушка:
2018-09-29 U Ловушка времени / Time Trap (2017) HDRip от MegaPeer | HDRezka Studio 1.46 GB ↑ 286 ↓ 176
2018-09-29 U Ловушка времени / Time Trap (2017) BDRip 1080p от Ash61 | P, L 6.79 GB ↑ 404 ↓ 169
2018-09-26 U Ловушка времени / Time Trap (2017) HDRip-AVC от OlLanDGroup | HDrezka Studio 1.53 GB ↑ 192 ↓ 91
2018-09-16 U Ловушка времени / Time Trap (2017) HDRip-AVC от ExKinoRay | L 746.80 MB ↑ 75 ↓ 20
2018-09-10 U Ловушка времени / Time Trap (2017) HDRip | L 1.45 GB ↑ 496 ↓ 225
2018-09-09 U Ловушка времени / Time Trap (2017) BDRip 1080p от Ash61 | L 6.40 GB ↑ 330 ↓ 222
2018-08-10 U Ловушка времени / Time Trap (2017) HDTVRip GreenРай Studio 1.37 GB ↑ 313 ↓ 87

Отзывы
Зарегистрируйтесь чтобы добавить комментарий.
Обратная связь
Copyleft ©