↑↓Torrent.by
Поиск
Логин: Регистрация
Пароль: Восстановить пароль
Загрузка...

Возвращение в Простоквашино [01] (2018) WEB-DL 1080р

Скачать vozvraschenie-v-prostokvashino-01-2018-web-dl-1080r.torrent
U Магнитная ссылка Размер: 243.14 MB Раздают: 1463 Качают: 220 Добавлен: 2018-04-03 18:06:11
Возвращение в Простоквашино [01] (2018) WEB-DL 1080р

Название: Возвращение в Простоквашино
Год выхода: 2018
Жанр: Мультфильм, семейный

Роли озвучивали: Антон Табаков, Юлия Меньшова, Иван Охлобыстин, Гарик Сукачёв, Алексей Онежен

О мультфильме: Союзмультфильм планирует снять несколько десятков новых эпизодов, которые станут продолжением серии анимационных лент Трое из Простоквашино. Задача нового проекта — показать, как изменилось "Простоквашино" вместе со страной, все-таки прошло 20 лет, а также вовлечь детей в новые приключения персонажей, которые говорят о вечных ценностях, таких как семья, дом, забота о близких - сказала председатель правления Союзмультфильма Юлиана Слащева. В период с 2018 по 2020 год в свет выйдет 30 серий мультфильма о деревне Простоквашино и ее героях.

Производство: Россия / Союзмультфильм
Продолжительность: 00:06:30
Перевод: Не требуется
Субтитры: Отсутствуют

Файл
Формат: MKV
Качество: WEB-DL 1080р

Видео: MPEG-4 AVC, 5037 Кбит/с, 1920x1080
Аудио: 48 kHz, AC3 Dolby Digital, 2/0 (L,R) ch, ~192 kbps
[+] MediaInfo
Общее
Уникальный идентификатор                 : 328388245600085779339621698889891660196 (0xF70D468B02250CD50E168359408B41A4)
Полное имя                               : Возвращение в Простоквашино.mkv
Формат                                   : Matroska
Версия формата                           : Version 4 / Version 2
Размер файла                             : 243 Мбайт
Продолжительность                        : 6 м. 30 с.
Общий поток                              : 5229 Кбит/сек
Программа кодирования                    : mkvmerge v21.0.0 ('Tardigrades Will Inherit The Earth') 64-bit
Библиотека кодирования                   : libebml v1.3.5 + libmatroska v1.4.8

Видео
Идентификатор                            : 1
Формат                                   : AVC
Формат/Информация                        : Advanced Video Codec
Профиль формата                          : Main@L5.1
Настройки формата                        : CABAC / 1 Ref Frames
Параметр CABAC формата                   : Да
Параметр RefFrames формата               : 1 кадр
Параметр GOP формата                     : N=1
Идентификатор кодека                     : V_MPEG4/ISO/AVC
Продолжительность                        : 6 м. 29 с.
Битрейт                                  : 5037 Кбит/сек
Ширина                                   : 1920 пикселей
Высота                                   : 1080 пикселей
Соотношение сторон                       : 16:9
Режим частоты кадров                     : Постоянный
Частота кадров                           : 25,000 кадров/сек
Цветовое пространство                    : YUV
Субдискретизация насыщенности            : 4:2:0
Битовая глубина                          : 8 бит
Тип развёртки                            : Прогрессивная
Бит/(Пиксели*Кадры)                      : 0.097
Размер потока                            : 234 Мбайт (96%)
Default                                  : Да
Forced                                   : Нет

Аудио
Идентификатор                            : 2
Формат                                   : AC-3
Формат/Информация                        : Audio Coding 3
Идентификатор кодека                     : A_AC3
Продолжительность                        : 6 м. 30 с.
Вид битрейта                             : Постоянный
Битрейт                                  : 192 Кбит/сек
Каналы                                   : 2 канала
Расположение каналов                     : Front: L R
Частота                                  : 48,0 КГц
Частота кадров                           : 31,250 кадров/сек (1536 SPF)
Битовая глубина                          : 16 бит
Метод сжатия                             : С потерями
Размер потока                            : 8,93 Мбайт (4%)
Default                                  : Да
Forced                                   : Нет



Скриншоты:
[+] Всего файлов в раздаче - 1:
Возвращение в Простоквашино.mkv243.14 MB

Показать еще раздачи по запросу возвращение:
Вчера U Следствие вели... с Леонидом Каневским. Возвращение Фантомасов [эфир от 17.02] (2019) WEBRip 1080p от ExKinoRay 1.80 GB ↑ 53 ↓ 9
2019-01-20 U Возвращение Ринго / Il ritorno di Ringo (1965) BDRip от Koenig | L1 1.45 GB ↑ 24 ↓ 3
2018-12-31 U Белые росы. Возвращение / Белые Росы 2 (2014) WEB-DLRip от GeneralFilm 1.45 GB ↑ 81 ↓ 22
2018-11-20 U Возвращение к себе [01-04 из 04] (2018) WEBRip-AVC от Files-x 2.29 GB ↑ 45 ↓ 20
2018-11-19 U Возвращение к себе [01-04 из 04] (2018) WEBRip от Files-x 2.44 GB ↑ 106 ↓ 60
2018-08-23 U Возвращение броненосца (1996) DVDRip 2.34 GB ↑ 60 ↓ 20
2018-07-07 U Призрак Мореллы / Возвращение Сатаны / The Haunting of Morella (1990) BDRip 1080p | L1 1К6.74 GB ↑ 65 ↓ 16

Отзывы
Зарегистрируйтесь чтобы добавить комментарий.
Обратная связь
Copyleft ©