↑↓Torrent.by
Поиск
Логин: Регистрация
Пароль: Восстановить пароль
Загрузка...

Возвращение в Простоквашино [01] (2018) WEB-DL 1080р

Скачать vozvraschenie-v-prostokvashino-01-2018-web-dl-1080r.torrent
U Магнитная ссылка Размер: 243.14 MB Раздают: 815 Качают: 210 Добавлен: 2018-04-03 18:06:11
Возвращение в Простоквашино [01] (2018) WEB-DL 1080р

Название: Возвращение в Простоквашино
Год выхода: 2018
Жанр: Мультфильм, семейный

Роли озвучивали: Антон Табаков, Юлия Меньшова, Иван Охлобыстин, Гарик Сукачёв, Алексей Онежен

О мультфильме: Союзмультфильм планирует снять несколько десятков новых эпизодов, которые станут продолжением серии анимационных лент Трое из Простоквашино. Задача нового проекта — показать, как изменилось "Простоквашино" вместе со страной, все-таки прошло 20 лет, а также вовлечь детей в новые приключения персонажей, которые говорят о вечных ценностях, таких как семья, дом, забота о близких - сказала председатель правления Союзмультфильма Юлиана Слащева. В период с 2018 по 2020 год в свет выйдет 30 серий мультфильма о деревне Простоквашино и ее героях.

Производство: Россия / Союзмультфильм
Продолжительность: 00:06:30
Перевод: Не требуется
Субтитры: Отсутствуют

Файл
Формат: MKV
Качество: WEB-DL 1080р

Видео: MPEG-4 AVC, 5037 Кбит/с, 1920x1080
Аудио: 48 kHz, AC3 Dolby Digital, 2/0 (L,R) ch, ~192 kbps
[+] MediaInfo
Общее
Уникальный идентификатор                 : 328388245600085779339621698889891660196 (0xF70D468B02250CD50E168359408B41A4)
Полное имя                               : Возвращение в Простоквашино.mkv
Формат                                   : Matroska
Версия формата                           : Version 4 / Version 2
Размер файла                             : 243 Мбайт
Продолжительность                        : 6 м. 30 с.
Общий поток                              : 5229 Кбит/сек
Программа кодирования                    : mkvmerge v21.0.0 ('Tardigrades Will Inherit The Earth') 64-bit
Библиотека кодирования                   : libebml v1.3.5 + libmatroska v1.4.8

Видео
Идентификатор                            : 1
Формат                                   : AVC
Формат/Информация                        : Advanced Video Codec
Профиль формата                          : Main@L5.1
Настройки формата                        : CABAC / 1 Ref Frames
Параметр CABAC формата                   : Да
Параметр RefFrames формата               : 1 кадр
Параметр GOP формата                     : N=1
Идентификатор кодека                     : V_MPEG4/ISO/AVC
Продолжительность                        : 6 м. 29 с.
Битрейт                                  : 5037 Кбит/сек
Ширина                                   : 1920 пикселей
Высота                                   : 1080 пикселей
Соотношение сторон                       : 16:9
Режим частоты кадров                     : Постоянный
Частота кадров                           : 25,000 кадров/сек
Цветовое пространство                    : YUV
Субдискретизация насыщенности            : 4:2:0
Битовая глубина                          : 8 бит
Тип развёртки                            : Прогрессивная
Бит/(Пиксели*Кадры)                      : 0.097
Размер потока                            : 234 Мбайт (96%)
Default                                  : Да
Forced                                   : Нет

Аудио
Идентификатор                            : 2
Формат                                   : AC-3
Формат/Информация                        : Audio Coding 3
Идентификатор кодека                     : A_AC3
Продолжительность                        : 6 м. 30 с.
Вид битрейта                             : Постоянный
Битрейт                                  : 192 Кбит/сек
Каналы                                   : 2 канала
Расположение каналов                     : Front: L R
Частота                                  : 48,0 КГц
Частота кадров                           : 31,250 кадров/сек (1536 SPF)
Битовая глубина                          : 16 бит
Метод сжатия                             : С потерями
Размер потока                            : 8,93 Мбайт (4%)
Default                                  : Да
Forced                                   : Нет



Скриншоты:
[+] Всего файлов в раздаче - 1:
Возвращение в Простоквашино.mkv243.14 MB

Текущая раздача:
ДатаКомментарии    РазмерПиры
2018-04-03 U Возвращение в Простоквашино [01] (2018) WEB-DL 1080р 243.14 MB ↑ 815 ↓ 210

Показать еще раздачи по запросу возвращение:
2018-04-03 U Возвращение в Простоквашино [01] (2018) WEB-DLRip-AVC от OlLanDGroup 101.95 MB ↑ 271 ↓ 70
2018-04-03 U Возвращение в Простоквашино (2018) WEB-DLRip 99.73 MB ↑ 397 ↓ 93
2018-03-26 U Стрелок 3. Возвращение героя [S03] (2018) SATRip от Files-x 1.81 GB ↑ 105 ↓ 65
2018-03-26 U Стрелок 3. Возвращение героя [S03] (2018) SATRip-AVC от Files-x 1.80 GB ↑ 195 ↓ 90
2018-03-24 U Возвращение на остров сокровищ / Return to Treasure (1996) DVDRip от NovaLan | P 1К1.46 GB ↑ 109 ↓ 50
2018-03-22 U Возвращение мушкетеров / The Return of the Musketeers (1989) WEB-DLRip 720p от KORSAR | P1, P 5.69 GB ↑ 31 ↓ 17
2018-03-19 U Возвращение / The Recall (2017) BDRip 1080p | L 6.00 GB ↑ 87 ↓ 74

Отзывы
Зарегистрируйтесь чтобы добавить комментарий.
Обратная связь
Copyleft ©