↑↓Torrent.by
Поиск
Логин: Регистрация
Пароль: Восстановить пароль
Загрузка...

Невеста чародея / Mahoutsukai no Yome [S01] (2017-2018) WEBRip 720p | SHIZA Project

Скачать nevesta-charodeya-mahoutsukai-no-yome-s01-2017-2018-webrip-720p-shiza-project.torrent
U Магнитная ссылка Размер: 8.49 GB Раздают: 241 Качают: 35 Добавлен: 2018-04-03 18:07:11
Невеста чародея / Mahoutsukai no Yome [S01] (2017-2018) WEBRip 720p | SHIZA Project


Название: Невеста чародея
Оригинальное название: Mahoutsukai no Yome
Год выхода: 2017-2018
Жанр: фэнтези, повседневность
Режиссер: Наганума Норихиро
Художник: Такэда Юсукэ
В ролях: Танэдзаки Ацуми, Такэути Рёта, Утияма Коки, Эндо Ая, Кайда Юко, Морикава Тосиюки, Сувабэ Дзюнъити, Намикава Дайсукэ, Хино Сатоси, Тамура Муцуми, Охара Саяка, Мурасэ Аюму, Ямагути Каппэй
О фильме:
За свою недолгую жизнь юная Тисэ Хатори успела испытать множество невзгод. Окруженная пренебрежением и жестокостью, лишенная всего, что хотя бы отдаленно напоминало любовь или заботу, не знавшая тепла семейного очага, она смирилась со своей участью, полной бед и злоключений.И вот однажды, когда всякая надежда уже была утрачена, посреди рабовладельческого аукциона девушку ожидала судьбоносная встреча. Теперь, когда таинственный незнакомец, похожий скорее на чудовище, чем на человека, покупает ее за баснословную сумму, жизнь Тисэ больше никогда не вернется в прежнее русло.Этот незнакомец по имени Элиас Эйнсворт — чародей, загадочный кудесник, творящий невиданные чудеса. Он решает освободить Тисэ из оков рабства и взять ее в ученицы, ведь девушка обладает редчайшим магическим даром. И наконец, чародей делает ошеломляющее заявление: Тисэ станет не только его ученицей, но и невестой!

World Art | MAL

Страна: Япония
Студия: Wit Studio
Продолжительность: 00:24:10
Язык: Русский, Японский
Перевод: Любительский (многоголосый, закадровый)

Файл
Качество: WEBRip
Формат: MKV
Кодек: H.264
Аудио кодек: AAC
Видео: 1280x720, 23.976 fps, 1800 kbps
Аудио RUS: 48.0 kHz, AAC, 2 ch, 192 kbps - SHIZA Project
Аудио JAP: 48.0 kHz, AAC, 2 ch, 124 kbps
Субтитры: русские (встроенные полный перевод, ASS) - YakuSub Studio


[+] Озвучка
Релиз от:
Озвучивание: Dancel, nDrOiDze, Daelit, Pandora, Тань-УХ-а, Лизавета
Перевод: Akashi & BBNG (01-14), Crunchyroll (15-24)
Тайминг и работа со звуком: Daelit (01-11), Dancel (12-24)



[+] Список серий
01. Не вкусив горького, не узнаешь и сладкого.
02. Не откладывай на завтра то, что можешь сделать сегодня.
03. Килограмм пуха и киллограмм свинца весят одинаково.
04. Всё имеет своё начало.
05. Любовь побеждает всё.
06. Королева фей.
07. Помяни чёрта, он и появится.
08. Не будите спящую собаку.
09. Глух тот, кто не желает слышать.
10. Век живи — век учись.
11. Любовники бегут скорей часов.
12. Не ищут дороги, а спрашивают.
13. В гостях хорошо, а дома лучше.
14. Взгляды рождают любовь.
15. Лучше дома своего, нет на свете ничего.
16. Сколько верёвочке ни виться, конец будет.
17. Семь раз отмерь, один раз отрежь.
18. Прости и забудь.
19. Выбирать не приходится.
20. Цель оправдывает средства.
21. Нужда закона не знает.
22. Что посеешь, то и пожнёшь.
23. Под лежачий камень вода не течёт.
24. Живи и жить давай другим.



[+] MediaInfo
General
Format : Matroska
Format version : Version 4 / Version 2
File size : 364 MiB
Duration : 24 min
Overall bit rate : 2 103 kb/s
Encoded date : UTC 2018-03-31 07:45:41
Writing application : mkvmerge v8.3.0 ('Over the Horizon') 64bit
Writing library : libebml v1.3.1 + libmatroska v1.4.2

Video
ID : 1
Format : AVC
Format/Info : Advanced Video Codec
Format profile : High@L4
Format settings, CABAC : Yes
Format settings, ReFrames : 6 frames
Codec ID : V_MPEG4/ISO/AVC
Duration : 24 min
Bit rate : 1 776 kb/s
Width : 1 280 pixels
Height : 720 pixels
Display aspect ratio : 16:9
Frame rate mode : Variable
Frame rate : 23.976 (23976/1000) FPS
Color space : YUV
Chroma subsampling : 4:2:0
Bit depth : 8 bits
Scan type : Progressive
Bits/(Pixel*Frame) : 0.080
Stream size : 307 MiB (84%)
Writing library : x264 core 120 r2120 0c7dab9
Encoding settings : cabac=1 / ref=6 / deblock=1:1:1 / analyse=0x3:0x113 / me=umh / subme=8 / psy=1 / psy_rd=0.40:0.00 / mixed_ref=1 / me_range=16 / chroma_me=1 / trellis=1 / 8x8dct=1 / cqm=0 / deadzone=21,11 / fast_pskip=1 / chroma_qp_offset=-2 / threads=4 / sliced_threads=0 / nr=0 / decimate=1 / interlaced=0 / bluray_compat=0 / constrained_intra=0 / bframes=3 / b_pyramid=2 / b_adapt=2 / b_bias=0 / direct=3 / weightb=1 / open_gop=0 / weightp=2 / keyint=250 / keyint_min=23 / scenecut=40 / intra_refresh=0 / rc_lookahead=50 / rc=2pass / mbtree=1 / bitrate=1776 / ratetol=1.0 / qcomp=0.60 / qpmin=0 / qpmax=69 / qpstep=4 / cplxblur=20.0 / qblur=0.5 / vbv_maxrate=3552 / vbv_bufsize=8880 / nal_hrd=none / ip_ratio=1.40 / aq=1:0.60
Default : Yes
Forced : No

Audio #1
ID : 2
Format : AAC
Format/Info : Advanced Audio Codec
Format profile : LC
Codec ID : A_AAC
Duration : 24 min
Bit rate : 192 kb/s
Channel(s) : 2 channels
Channel positions : Front: L R
Sampling rate : 48.0 kHz
Frame rate : 46.875 FPS (1024 spf)
Compression mode : Lossy
Stream size : 33.9 MiB (9%)
Title : SHIZA Project
Language : Russian
Default : Yes
Forced : No

Audio #2
ID : 3
Format : AAC
Format/Info : Advanced Audio Codec
Format profile : LC
Codec ID : A_AAC
Duration : 24 min
Bit rate : 128 kb/s
Channel(s) : 2 channels
Channel positions : Front: L R
Sampling rate : 44.1 kHz
Frame rate : 43.066 FPS (1024 spf)
Compression mode : Lossy
Stream size : 22.1 MiB (6%)
Title : Original
Language : Japanese
Default : No
Forced : No

Text
ID : 4
Format : ASS
Codec ID : S_TEXT/ASS
Codec ID/Info : Advanced Sub Station Alpha
Duration : 24 min
Bit rate : 1 499 b/s
Count of elements : 1971
Compression mode : Lossless
Stream size : 265 KiB (0%)
Title : Полные субтитры - YakuSub Studio
Language : Russian
Default : Yes
Forced : No



Скриншоты:
[+] Всего файлов в раздаче - 24:
Mahoutsukai no Yome TV [14].mkv359.25 MB
Mahoutsukai no Yome TV [18].mkv360.51 MB
Mahoutsukai no Yome TV [15].mkv360.54 MB
Mahoutsukai no Yome TV [12].mkv360.60 MB
Mahoutsukai no Yome TV [17].mkv360.97 MB
Mahoutsukai no Yome TV [24].mkv361.05 MB
Mahoutsukai no Yome TV [22].mkv361.32 MB
Mahoutsukai no Yome TV [21].mkv361.82 MB
Mahoutsukai no Yome TV [13].mkv361.90 MB
Mahoutsukai no Yome TV [19].mkv362.05 MB
Mahoutsukai no Yome TV [07].mkv362.28 MB
Mahoutsukai no Yome TV [09].mkv362.38 MB
Mahoutsukai no Yome TV [05].mkv362.59 MB
Mahoutsukai no Yome TV [03].mkv362.62 MB
Mahoutsukai no Yome TV [23].mkv362.63 MB
Mahoutsukai no Yome TV [10].mkv363.00 MB
Mahoutsukai no Yome TV [16].mkv363.12 MB
Mahoutsukai no Yome TV [11].mkv363.40 MB
Mahoutsukai no Yome TV [20].mkv363.47 MB
Mahoutsukai no Yome TV [02].mkv363.52 MB
Mahoutsukai no Yome TV [08].mkv363.53 MB
Mahoutsukai no Yome TV [06].mkv363.54 MB
Mahoutsukai no Yome TV [04].mkv363.62 MB
Mahoutsukai no Yome TV [01].mkv363.74 MB

Текущая раздача:
ДатаКомментарии    РазмерПиры
2018-04-03 U Невеста чародея / Mahoutsukai no Yome [S01] (2017-2018) WEBRip 720p | SHIZA Project 8.49 GB ↑ 241 ↓ 35

Показать еще раздачи по запросу невеста:
2018-08-10 U Случайная невеста / Наследница [01-04 из 04] (2018) WEB-DLRip-AVC от Files-x 2.31 GB ↑ 45 ↓ 18
2018-08-09 U Случайная невеста / Наследница [01-04 из 04] (2018) WEB-DLRip от Files-x 2.34 GB ↑ 21 ↓ 75
2018-08-09 U Случайная невеста / Наследница [01-04 из 04] (2018) WEB-DL 720p от Files-x 4.76 GB ↑ 71 ↓ 51
2018-08-08 U Случайная невеста (Наследница) [01-04 из 04] (2018) SATRip-AVC 2.39 GB ↑ 25 ↓ 7
2017-12-18 U Следствие вели... с Леонидом Каневским. Невеста под кроватью [17.12] (2017) HDTVRip от GeneralFim 500.29 MB ↑ 102 ↓ 32
2017-07-31 U Невеста (2017) BDRip от HQCLUB | GER Transfer | Лицензия 1.45 GB ↑ 104 ↓ 21
2017-07-31 U Невеста (2017) BDRip 720p от HELLYWOOD | Лицензия 2.91 GB ↑ 72 ↓ 16

Отзывы
Зарегистрируйтесь чтобы добавить комментарий.
Обратная связь
Copyleft ©