↑↓Torrent.by
Поиск
Логин: Регистрация
Пароль: Восстановить пароль
Загрузка...

Ловушка для кошек 2: Кот Апокалипсиса / Macskafogó 2 - A sátán macskája (2007) DVDRip-AVC от ExKinoRay | D

Скачать lovushka-dlya-koshek-2-kot-apokalipsisa-macskafog-a-s-t-n-macsk-ja-2007-dvdrip-avc-ot-exkinoray-d.torrent
U Магнитная ссылка Размер: 746.90 MB Раздают: 191 Качают: 15 Добавлен: 2018-04-04 03:45:34
Ловушка для кошек 2: Кот Апокалипсиса / Macskafogó 2 - A sátán macskája (2007) DVDRip-AVC от ExKinoRay | D

Название: Ловушка для кошек 2: Кот Апокалипсиса
Оригинальное название: Macskafogó 2 - A sátán macskája
Год выхода: 2007
Жанр:  Мультфильм, комедия, приключения
Режиссер: Бела Терновски
В ролях: Ласло Шинко, Петер Рудольф, Миклош Бенедек, Петер Хауманн, Дьёрдь Дёрнер, Бела Штенцер, Петер Балаж, Матьяш Устич, Габор Ревицки, Иван Дарваш

О фильме :
События происходят через много лет после событий, описанных в первом фильме. Журналист Стенли Маус хочет найти известное по легендам древнее племя котов, затерянное в Африке. Он находит их, и мышиная цивилизация оказывается под угрозой. Специальный агент Ник Грабовски снова должен будет спасти мир… Рабочее название фильма «Кот Сатаны». Фильм делала та же команда, что и первую «Ловушку для кошек».

Страна: Венгрия
Студия: A Vodafone Bemutatja
Продолжительность: 01:30:15
Перевод: Профессиональный (полное дублирование)

Файл
Формат: MKV
Качество: DVDRip-AVC
Видео: MPEG-4 AVC, 704x388, ~ 1079 Кбит/с
Аудио:  AAC-HE, 2 ch, ~ 76 Кбит/с

Релиз:


[+] MI
Общее
Уникальный идентификатор : 226026332200146438927597450772773545404 (0xAA0B16905EFF413A72EEBD7014CF25BC)
Полное имя : D:MOVIESMacskafogo II.2007.ExKinoRay.mkv
Формат : Matroska
Версия формата : Version 2
Размер файла : 747 Мбайт
Продолжительность : 1 ч. 30 м.
Общий поток : 1157 Кбит/сек
Дата кодирования : UTC 2018-04-03 09:41:39
Программа кодирования : mkvmerge v22.0.0 ('At The End Of The World') 64-bit
Библиотека кодирования : libebml v1.3.5 + libmatroska v1.4.8

Видео
Идентификатор : 1
Формат : AVC
Формат/Информация : Advanced Video Codec
Профиль формата : High@L4.1
Параметр CABAC формата : Да
Параметр RefFrames формата : 10 кадров
Идентификатор кодека : V_MPEG4/ISO/AVC
Продолжительность : 1 ч. 30 м.
Битрейт : 1079 Кбит/сек
Ширина : 704 пикселя
Высота : 388 пикселей
Соотношение сторон : 16:9
Режим частоты кадров : Постоянный
Частота кадров : 25,000 кадров/сек
Цветовое пространство : YUV
Субдискретизация насыщенности : 4:2:0
Битовая глубина : 8 бит
Тип развёртки : Прогрессивная
Бит/(Пиксели*Кадры) : 0.158
Размер потока : 697 Мбайт (93%)
Библиотека кодирования : x264 core 155 r2901 7d0ff22
Настройки программы : cabac=1 / ref=10 / deblock=1:-3:-3 / analyse=0x3:0x133 / me=umh / subme=11 / psy=1 / psy_rd=1.00:0.10 / mixed_ref=1 / me_range=32 / chroma_me=1 / trellis=2 / 8x8dct=1 / cqm=0 / deadzone=21,11 / fast_pskip=0 / chroma_qp_offset=-3 / threads=6 / lookahead_threads=1 / sliced_threads=0 / nr=0 / decimate=0 / interlaced=0 / bluray_compat=0 / constrained_intra=0 / bframes=10 / b_pyramid=2 / b_adapt=2 / b_bias=0 / direct=3 / weightb=1 / open_gop=0 / weightp=2 / keyint=250 / keyint_min=24 / scenecut=40 / intra_refresh=0 / rc_lookahead=40 / rc=2pass / mbtree=1 / bitrate=1079 / ratetol=1.0 / qcomp=0.60 / qpmin=0 / qpmax=69 / qpstep=4 / cplxblur=20.0 / qblur=0.5 / vbv_maxrate=50000 / vbv_bufsize=62500 / nal_hrd=none / filler=0 / ip_ratio=1.40 / aq=3:1.00
Default : Да
Forced : Нет

Аудио
Идентификатор : 2
Формат : AAC
Формат/Информация : Advanced Audio Codec
Профиль формата : HE-AAC / LC
Идентификатор кодека : A_AAC
Продолжительность : 1 ч. 30 м.
Битрейт : 76,0 Кбит/сек
Каналы : 2 канала
Расположение каналов : Front: L R
Частота : 48,0 КГц / 24,0 КГц
Частота кадров : 23,438 кадра/сек (1024 SPF)
Метод сжатия : С потерями
Задержка видео : 31 мс.
Размер потока : 49,1 Мбайт (7%)
Default : Да
Forced : Нет



Скриншоты:
[+] Всего файлов в раздаче - 1:
Macskafogo II.2007.ExKinoRay.mkv746.90 MB

Показать еще раздачи по запросу ловушка:
2019-02-08 U Ловушка времени / Time Trap (2017) BDRip 1080p от Ash61 | D, P | iTunes 6.64 GB ↑ 76 ↓ 25
2019-02-04 U Ловушка времени / Time Trap (2017) HDRip-AVC от OlLanDGroup | D, P | iTunes 1.77 GB ↑ 222 ↓ 53
2019-02-04 U Ловушка времени / Time Trap (2017) HDRip от MegaPeer | iTunes 1.42 GB ↑ 742 ↓ 149
2018-09-29 U Ловушка времени / Time Trap (2017) HDRip от MegaPeer | HDRezka Studio 1.46 GB ↑ 433 ↓ 176
2018-09-29 U Ловушка времени / Time Trap (2017) BDRip 1080p от Ash61 | P, L 6.79 GB ↑ 438 ↓ 181
2018-09-26 U Ловушка времени / Time Trap (2017) HDRip-AVC от OlLanDGroup | HDrezka Studio 1.53 GB ↑ 203 ↓ 93
2018-09-16 U Ловушка времени / Time Trap (2017) HDRip-AVC от ExKinoRay | L 746.80 MB ↑ 75 ↓ 22

Отзывы
Зарегистрируйтесь чтобы добавить комментарий.
Обратная связь
Copyleft ©