↑↓Torrent.by
Поиск
Логин: Регистрация
Пароль: Восстановить пароль
Загрузка...

Отряд самоубийц: Строгое наказание / Suicide Squad: Hell to Pay (2018) WEBRip 720p | Flarrow Films

Скачать otryad-samoubiyc-strogoe-nakazanie-suicide-squad-hell-to-pay-2018-webrip-720p-flarrow-films.torrent
U Магнитная ссылка Размер: 2.91 GB Раздают: 181 Качают: 53 Добавлен: 2018-04-05 08:45:45
Отряд самоубийц: Строгое наказание / Suicide Squad: Hell to Pay (2018) WEBRip 720p | Flarrow Films

Название: Отряд самоубийц: Строгое наказание
Оригинальное название: Suicide Squad: Hell to Pay
Год выхода: 2018
Жанр: мультфильм, боевик
Режиссер: Сэм Лью
В ролях: Кристиан Слэйтер, Си Томас Хауэлл, Тара Стронг, Ванесса Уильямс, Даня Рамирес, Билли Браун, Лиам МакИнтайр, Кристин Бауэр, Мэттью Мерсер, Гидеон Эмери

О фильме:
Целью отряда Икс становится мощный мистический объект, который они попытаются украсть, рискуя жизнями.

 
Страна: США
Продолжительность: 01:26:06
Перевод: Любительский (многоголосый, закадровый) | Flarrow Films (присутствует ненормативная лексика, всего 1 фраза  )

Файл
Формат: MKV
Кодек: MPEG-4 AVC
Качество: WEBRip 720p
Видео: ~4 072 Кбит/с, 1280x720, 23.976 FPS
Звук: PCM (A_PCM/INT/LIT), mono, 768 Кбит/с, 48.0 kHz
Субтитры: отсутствуют

Релиз от: Flarrow Films
Роли озвучивали: Глеб Петров, Nogoodvoice, Александр Байсаров, Велес Ксайев, Дмитрий Савкин, ElisaL, Lunar Arrow, Dreamy Sleep, Molli_bolli, Daelit, Okana Tsoy, Ron.


[+] MediaInfo

General
Unique ID : 209111218209264550034419237158251346119 (0x9D515B0E3701490D8F96FE99DD3F38C7)
Complete name : D:DownloadsMoviesSuicide.Squad.Hell.to.Pay.2018.WEBRip720p.Flarrow.Films.mkv
Format : Matroska
Format version : Version 4 / Version 2
File size : 2.91 GiB
Duration : 1 h 26 min
Overall bit rate : 4 842 kb/s
Movie name : Suicide.Squad.Hell.to.Pay.2018.720p.WEB-DL.DD5.1.H264-FGT
Encoded date : UTC 2018-04-04 16:14:07
Writing application : mkvmerge v8.3.0 ('Over the Horizon') 64bit
Writing library : libebml v1.3.1 + libmatroska v1.4.2
Video
ID : 1
Format : AVC
Format/Info : Advanced Video Codec
Format profile : High@L3.1
Format settings : 2 Ref Frames
Format settings, CABAC : No
Format settings, ReFrames : 2 frames
Codec ID : V_MPEG4/ISO/AVC
Duration : 1 h 26 min
Bit rate : 4 072 kb/s
Width : 1 280 pixels
Height : 720 pixels
Display aspect ratio : 16:9
Frame rate mode : Constant
Frame rate : 23.976 FPS
Color space : YUV
Chroma subsampling : 4:2:0
Bit depth : 8 bits
Scan type : Progressive
Bits/(Pixel*Frame) : 0.184
Stream size : 2.45 GiB (84%)
Title : Suicide.Squad.Hell.to.Pay.2018.720p.WEB-DL.DD5.1.H264-FGT
Language : English
Default : Yes
Forced : No
Color range : Limited
Color primaries : BT.709
Transfer characteristics : BT.709
Matrix coefficients : BT.709
Audio
ID : 2
Format : PCM
Format settings : Little / Signed
Codec ID : A_PCM/INT/LIT
Duration : 1 h 26 min
Bit rate mode : Constant
Bit rate : 768 kb/s
Sampling rate : 48.0 kHz
Frame rate : 32.000 FPS (1500 SPF)
Bit depth : 16 bits
Stream size : 473 MiB (16%)
Default : Yes
Forced : No



Скриншоты:
[+] Всего файлов в раздаче - 1:
Suicide.Squad.Hell.to.Pay.2018.WEBRip720p.Flarrow.Films.mkv2.91 GB

Текущая раздача:
ДатаКомментарии    РазмерПиры
2018-04-05 U Отряд самоубийц: Строгое наказание / Suicide Squad: Hell to Pay (2018) WEBRip 720p | Flarrow Films 2.91 GB ↑ 181 ↓ 53

Показать еще раздачи по запросу отряд:
2018-04-17 U Отряд самоубийц: Строгое наказание / Suicide Squad: Hell to Pay (2018) BDRip 1080p | Flarrow Films 5.20 GB ↑ 52 ↓ 16
2018-04-07 U Отряд самоубийц: Строгое наказание / Suicide Squad: Hell to Pay (2018) WEBRip от Portablius | Flarrow Films 698.00 MB ↑ 49 ↓ 11
2018-03-31 U Отряд самоубийц: Строгое наказание. / Suicide Squad: Hell to Pay (2018) WEBRip 720p | ZM-SHOW 1.95 GB ↑ 112 ↓ 86
2018-03-13 U Паранормальный отряд / Ghost Team (2016) WEB-DL 1080p | iTunes 3.16 GB ↑ 145 ↓ 56
2018-03-12 U Паранормальный отряд / Ghost Team (2016) WEB-DLRip | iTunes 1.37 GB ↑ 281 ↓ 90
2018-03-12 U Паранормальный отряд / Ghost Team (2016) WEB-DL 720p | iTunes 2.87 GB ↑ 145 ↓ 102
2018-02-21 U Снайпер: Специальный отряд / Sniper: Special Ops (2016) HDRip | L 1К1.45 GB ↑ 62 ↓ 26

Отзывы
Зарегистрируйтесь чтобы добавить комментарий.
Обратная связь
Copyleft ©