↑↓Torrent.by
Поиск
Логин: Регистрация
Пароль: Восстановить пароль
Загрузка...

Рубеж (2018) WEB-DLRip-AVC от ExKinoRay | iTunes

Скачать rubezh-2018-web-dlrip-avc-ot-exkinoray-itunes.torrent
U Магнитная ссылка Размер: 1.88 GB Раздают: 524 Качают: 182 Добавлен: 2018-04-05 08:46:55
Рубеж (2018) WEB-DLRip-AVC от ExKinoRay | iTunes

Информация о фильме
Название: Рубеж
Год выхода: 2018
Жанр: Фантастика, приключения, военный, история, драма
Режиссер: Дмитрий Тюрин
В ролях: Павел Прилучный, Станислав Дужников, Кристина Бродская, Александр Коршунов, Виктор Добронравов, Игорь Скляр, Дмитрий Куличков, Александр Соколовский, Семен Трескунов, Кирилл Кяро

О фильме:
У Михаила есть всё. Всё, кроме любви, и его это устраивает. Но вот он встречает ЕЁ, и всё, чего он добился в этой жизни, рушится в один миг. Не все умеют любить. Не каждому дано любить... Чтобы обрести право на любовь, Михаил получает возможность перемещаться во времени. Туда, где нет кредиток и гаджетов, где гибнут миллионы людей, и превращаются в руины города. Теперь, чтобы не сойти с ума и остаться в настоящем, ему придется принять правила опасного экзистенциального квеста.

Страна: Россия
Студия: Централ Партнершип, Кит фильм
Продолжительность: 01:35:53
Язык: Русский | iTunes

Файл
Формат: MKV
Качество: WEB-DLRip-AVC
Видео: MPEG-4 AVC, 1024x430 (2.40:1), 25.000 fps, 2426 Kbps, 0.220 bit/pixel
Аудио: 48 kHz, AC3, 5.1 ch, ~384 kbps avg

Релиз:

Автор релиза:


[+] MI
General
Unique ID                                : 215296816795604890940943121040423486365 (0xA1F8A89C9E096E3BB28F93A1D213839D)
Complete name                            : D:Rubezh.2018.O.WEB-DLRip.AVC.ExKinoRay.mkv
Format                                   : Matroska
Format version                           : Version 2
File size                                : 1.88 GiB
Duration                                 : 1 h 35 min
Overall bit rate                         : 2 811 kb/s
Movie name                               : RUBEZH 2018 from ExKinoRay
Encoded date                             : UTC 2018-04-05 03:34:58
Writing application                      : mkvmerge v5.6.0 ('Kenya Kane') built on May 27 2012 16:44:04
Writing library                          : libebml v1.2.3 + libmatroska v1.3.0

Video
ID                                       : 1
Format                                   : AVC
Format/Info                              : Advanced Video Codec
Format profile                           : High@L4.1
Format settings, CABAC                   : Yes
Format settings, ReFrames                : 10 frames
Codec ID                                 : V_MPEG4/ISO/AVC
Duration                                 : 1 h 35 min
Bit rate                                 : 2 426 kb/s
Width                                    : 1 024 pixels
Height                                   : 430 pixels
Display aspect ratio                     : 2.40:1
Frame rate mode                          : Constant
Frame rate                               : 25.000 FPS
Color space                              : YUV
Chroma subsampling                       : 4:2:0
Bit depth                                : 8 bits
Scan type                                : Progressive
Bits/(Pixel*Frame)                       : 0.220
Stream size                              : 1.59 GiB (84%)
Title                                    : Enigma
Writing library                          : x264 core 152 r2851 ba24899
Encoding settings                        : cabac=1 / ref=10 / deblock=1:-2:-2 / analyse=0x3:0x113 / me=umh / subme=10 / psy=1 / psy_rd=1.05:0.10 / mixed_ref=1 / me_range=32 / chroma_me=1 / trellis=2 / 8x8dct=1 / cqm=0 / deadzone=21,11 / fast_pskip=0 / chroma_qp_offset=-3 / threads=12 / lookahead_threads=3 / sliced_threads=0 / nr=0 / decimate=0 / interlaced=0 / bluray_compat=0 / constrained_intra=0 / bframes=10 / b_pyramid=2 / b_adapt=2 / b_bias=0 / direct=3 / weightb=1 / open_gop=0 / weightp=2 / keyint=240 / keyint_min=24 / scenecut=40 / intra_refresh=0 / rc_lookahead=40 / rc=2pass / mbtree=0 / bitrate=2426 / ratetol=1.0 / qcomp=0.60 / qpmin=0 / qpmax=51 / qpstep=4 / cplxblur=20.0 / qblur=0.5 / vbv_maxrate=50000 / vbv_bufsize=62500 / nal_hrd=none / filler=0 / ip_ratio=1.40 / pb_ratio=1.30 / aq=1:1.00
Language                                 : English
Default                                  : Yes
Forced                                   : No
Color range                              : Limited
Color primaries                          : BT.709
Transfer characteristics                 : BT.709
Matrix coefficients                      : BT.709

Audio
ID                                       : 2
Format                                   : AC-3
Format/Info                              : Audio Coding 3
Mode extension                           : CM (complete main)
Format settings, Endianness              : Big
Codec ID                                 : A_AC3
Duration                                 : 1 h 35 min
Bit rate mode                            : Constant
Bit rate                                 : 384 kb/s
Channel(s)                               : 6 channels
Channel positions                        : Front: L C R, Side: L R, LFE
Sampling rate                            : 48.0 kHz
Frame rate                               : 31.250 FPS (1536 spf)
Compression mode                         : Lossy
Stream size                              : 263 MiB (14%)
Title                                    : iTunes
Language                                 : Russian
Default                                  : Yes
Forced                                   : No

Menu
00:00:00.000                             : en:Глава 1
00:07:17.360                             : en:Глава 2
00:11:06.920                             : en:Глава 3
00:17:40.360                             : en:Глава 4
00:23:25.880                             : en:Глава 5
00:31:33.520                             : en:Глава 6
00:39:14.280                             : en:Глава 7
00:45:46.200                             : en:Глава 8
00:50:54.520                             : en:Глава 9
00:57:15.960                             : en:Глава 10
01:03:28.240                             : en:Глава 11
01:09:44.400                             : en:Глава 12
01:15:47.480                             : en:Глава 13
01:20:43.280                             : en:Глава 14
01:26:50.680                             : en:Глава 15




Скриншоты:
[+] Всего файлов в раздаче - 1:
Rubezh.2018.O.WEB-DLRip.AVC.ExKinoRay.mkv1.88 GB

Текущая раздача:
ДатаКомментарии    РазмерПиры
2018-04-05 U Рубеж (2018) WEB-DLRip-AVC от ExKinoRay | iTunes 1.88 GB ↑ 524 ↓ 182

Показать еще раздачи по запросу рубеж:
Сегодня U Тихоокеанский рубеж 2 / Pacific Rim Uprising (2018) BDRip 1080p от OlLanDGroup | D, P | Лицензия 11.77 GB ↑ 39 ↓ 7
Сегодня U Тихоокеанский рубеж 2 / Pacific Rim Uprising (2018) HDRip от Scarabey | Лицензия 1.45 GB ↑ 38 ↓ 6
Вчера U Тихоокеанский рубеж 2 / Pacific Rim: Uprising (2018) Blu-ray EUR | Лицензия 37.80 GB ↑ 23 ↓ 6
Вчера U Тихоокеанский рубеж 2 / Pacific Rim Uprising (2018) BDRemux 1080p от ExKinoRay | D, P | Лицензия 29.43 GB ↑ 24 ↓ 8
Вчера U Тихоокеанский рубеж 2 / Pacific Rim Uprising (2018) BDRip от ExKinoRay | Лицензия 1.46 GB ↑ 25 ↓ 9
Вчера U Тихоокеанский рубеж 2 / Pacific Rim Uprising (2018) HDRip от ExKinoRay | D | Лицензия 746.64 MB ↑ 32 ↓ 5
Вчера U Тихоокеанский рубеж 2 / Pacific Rim: Uprising (2018) BDRip 720p от HELLYWOOD | Лицензия 4.51 GB ↑ 29 ↓ 13

Отзывы
Зарегистрируйтесь чтобы добавить комментарий.
Обратная связь
Copyleft ©