↑↓Torrent.by
Поиск
Логин: Регистрация
Пароль: Восстановить пароль
Загрузка...

Тайна Коко / Coco (2017) BDRip 1080p от ExKinoRay | Лицензия

Скачать tayna-koko-coco-2017-bdrip-1080p-ot-exkinoray-licenziya.torrent
U Магнитная ссылка Размер: 9.00 GB Раздают: 779 Качают: 38 Добавлен: 2018-04-05 17:22:32
Тайна Коко / Coco (2017) BDRip 1080p от ExKinoRay | Лицензия

Название: Тайна Коко
Оригинальное название: Coco
Год выхода: 2017
Жанр: Мультфильм, мюзикл, фэнтези, комедия, детектив, приключения, семейный
Режиссер: Ли Анкрич, Эдриан Молина
В ролях: Энтони Гонсалес, Гаэль Гарсиа Берналь, Бенджамин Брэтт, Аланна Юбак, Рене Виктор, Хайме Камиль, Альфонсо Арау, Херберт Сигенса, Габриэль Иглесиас, Ломбардо Бойяр

О фильме:
12-летний Мигель живёт в мексиканской деревушке в семье сапожников и тайно мечтает стать музыкантом. Тайно — потому что в его семейном клане музыка считается проклятием. Когда-то его прапрадед оставил свою жену, прапрабабку Мигеля, ради мечты, которая теперь не даёт спокойно жить Мигелю. С тех пор музыкальная тема в семье стала табу. Мигель обнаруживает, что между ним и его любимым певцом Эрнесто де ла Крусом, ныне покойным, существует некая — пока неназванная — связь. Паренёк отправляется к своему кумиру в Страну Мёртвых, где встречает души своих предков. Мигель знакомится там с духом-трикстером по имени Гектор (в облике скелета), который становится его проводником. Вдвоём они отправляются на поиски де ла Круса.

Страна: США
Студия: Pixar Animation Studios, Walt Disney Pictures
Продолжительность: 01:45:02
Перевод: Дублированный | Лицензия

Качество: BDRip 1080p
Видео: MPEG-4 AVC, 1920x804, 10.1 Mbit/s, 23.976 fps
Звук:
Аудио #01: 48 kHz, AC3, 5.1, 640 Kbps | Дублированный | RUS |
Аудио #02: 48 kHz, DTS, 5.1, 1510 Kbps | Оригинал |  ENG |
Субтитры: Русские, английские

Релиз: Автор релиза:


[+] MI
General
Unique ID                   : 134167187777673173549414077284862047825 (0x64EFA9133854C895A390BCA95656B651)
Complete name               : C:Video111Coco.2017.Lic.BDRip.1080p.ExKinoRay.mkv
Format                      : Matroska
Format version              : Version 4 / Version 2
File size                   : 9.00 GiB
Duration                    : 1 h 45 min
Overall bit rate            : 12.3 Mb/s
Movie name                  : Coco 2017 from ExKinoRay
Encoded date                : UTC 2018-04-05 14:21:53
Writing application         : mkvmerge v22.0.0 ('At The End Of The World') 64-bit
Writing library             : libebml v1.3.5 + libmatroska v1.4.8

Video
ID                          : 1
Format                      : AVC
Format/Info                 : Advanced Video Codec
Format profile              : High@L4.1
Format settings             : CABAC / 5 Ref Frames
Format settings, CABAC      : Yes
Format settings, ReFrames   : 5 frames
Codec ID                    : V_MPEG4/ISO/AVC
Duration                    : 1 h 45 min
Bit rate                    : 10.1 Mb/s
Width                       : 1 920 pixels
Height                      : 804 pixels
Display aspect ratio        : 2.40:1
Frame rate mode             : Constant
Frame rate                  : 23.976 (24000/1001) FPS
Color space                 : YUV
Chroma subsampling          : 4:2:0
Bit depth                   : 8 bits
Scan type                   : Progressive
Bits/(Pixel*Frame)          : 0.273
Stream size                 : 7.42 GiB (82%)
Writing library             : x264 core 148 r2705 3f5ed56
Encoding settings           : cabac=1 / ref=5 / deblock=1:-2:-2 / analyse=0x3:0x133 / me=umh / subme=11 / psy=1 / psy_rd=1.05:0.05 / mixed_ref=1 / me_range=48 / chroma_me=1 / trellis=2 / 8x8dct=1 / cqm=0 / deadzone=21,11 / fast_pskip=0 / chroma_qp_offset=-3 / threads=32 / lookahead_threads=4 / sliced_threads=0 / nr=0 / decimate=0 / interlaced=0 / bluray_compat=0 / constrained_intra=0 / bframes=8 / b_pyramid=2 / b_adapt=2 / b_bias=0 / direct=3 / weightb=1 / open_gop=0 / weightp=2 / keyint=240 / keyint_min=23 / scenecut=40 / intra_refresh=0 / rc_lookahead=50 / rc=2pass / mbtree=0 / bitrate=10120 / ratetol=1.0 / qcomp=0.60 / qpmin=0 / qpmax=69 / qpstep=4 / cplxblur=20.0 / qblur=0.5 / vbv_maxrate=50000 / vbv_bufsize=62500 / nal_hrd=none / filler=0 / ip_ratio=1.40 / pb_ratio=1.30 / aq=3:0.80
Language                    : English
Default                     : Yes
Forced                      : No

Audio #1
ID                          : 2
Format                      : AC-3
Format/Info                 : Audio Coding 3
Codec ID                    : A_AC3
Duration                    : 1 h 45 min
Bit rate mode               : Constant
Bit rate                    : 640 kb/s
Channel(s)                  : 6 channels
Channel positions           : Front: L C R, Side: L R, LFE
Sampling rate               : 48.0 kHz
Frame rate                  : 31.250 FPS (1536 SPF)
Bit depth                   : 16 bits
Compression mode            : Lossy
Stream size                 : 481 MiB (5%)
Title                       : Dub [License]
Language                    : Russian
Service kind                : Complete Main
Default                     : Yes
Forced                      : Yes

Audio #2
ID                          : 3
Format                      : DTS
Format/Info                 : Digital Theater Systems
Codec ID                    : A_DTS
Duration                    : 1 h 45 min
Bit rate mode               : Constant
Bit rate                    : 1 509 kb/s
Channel(s)                  : 6 channels
Channel positions           : Front: L C R, Side: L R, LFE
Sampling rate               : 48.0 kHz
Frame rate                  : 93.750 FPS (512 SPF)
Bit depth                   : 24 bits
Compression mode            : Lossy
Stream size                 : 1.11 GiB (12%)
Title                       : Original
Language                    : English
Default                     : No
Forced                      : No

Text #1
ID                          : 4
Format                      : UTF-8
Codec ID                    : S_TEXT/UTF8
Codec ID/Info               : UTF-8 Plain Text
Duration                    : 1 s 1 ms
Bit rate                    : 255 b/s
Count of elements           : 1
Stream size                 : 32.0 Bytes (0%)
Title                       : Forced
Language                    : Russian
Default                     : Yes
Forced                      : No

Text #2
ID                          : 5
Format                      : UTF-8
Codec ID                    : S_TEXT/UTF8
Codec ID/Info               : UTF-8 Plain Text
Duration                    : 1 h 34 min
Bit rate                    : 94 b/s
Count of elements           : 1168
Stream size                 : 65.7 KiB (0%)
Title                       : Full
Language                    : Russian
Default                     : No
Forced                      : No

Text #3
ID                          : 6
Format                      : UTF-8
Codec ID                    : S_TEXT/UTF8
Codec ID/Info               : UTF-8 Plain Text
Duration                    : 1 h 37 min
Bit rate                    : 63 b/s
Count of elements           : 1441
Stream size                 : 45.6 KiB (0%)
Title                       : Full
Language                    : English
Default                     : No
Forced                      : No

Text #4
ID                          : 7
Format                      : UTF-8
Codec ID                    : S_TEXT/UTF8
Codec ID/Info               : UTF-8 Plain Text
Duration                    : 1 h 38 min
Bit rate                    : 77 b/s
Count of elements           : 1722
Stream size                 : 55.9 KiB (0%)
Title                       : SDH
Language                    : English
Default                     : No
Forced                      : No

Text #5
ID                          : 8
Format                      : UTF-8
Codec ID                    : S_TEXT/UTF8
Codec ID/Info               : UTF-8 Plain Text
Duration                    : 1 h 38 min
Bit rate                    : 109 b/s
Count of elements           : 1723
Stream size                 : 78.5 KiB (0%)
Title                       : SDH Colored
Language                    : English
Default                     : No
Forced                      : No

Menu
00:00:00.000                : en:Chapter 1
00:06:40.191                : en:Chapter 2
00:08:41.520                : en:Chapter 3
00:11:13.589                : en:Chapter 4
00:14:20.317                : en:Chapter 5
00:17:06.942                : en:Chapter 6
00:18:20.933                : en:Chapter 7
00:22:05.991                : en:Chapter 8
00:24:19.958                : en:Chapter 9
00:27:44.829                : en:Chapter 10
00:29:07.912                : en:Chapter 11
00:32:15.308                : en:Chapter 12
00:35:18.407                : en:Chapter 13
00:41:25.524                : en:Chapter 14
00:47:04.696                : en:Chapter 15
00:50:54.175                : en:Chapter 16
00:54:23.885                : en:Chapter 17
00:56:45.026                : en:Chapter 18
01:01:42.615                : en:Chapter 19
01:03:28.137                : en:Chapter 20
01:08:58.217                : en:Chapter 21
01:15:17.262                : en:Chapter 22
01:18:56.773                : en:Chapter 23
01:21:31.761                : en:Chapter 24
01:24:31.816                : en:Chapter 25
01:28:23.464                : en:Chapter 26
01:33:14.755                : en:Chapter 27
01:36:10.472                : en:Chapter 28



Скриншоты:
[+] Всего файлов в раздаче - 1:
Coco.2017.Lic.BDRip.1080p.ExKinoRay.mkv9.00 GB

Текущая раздача:
ДатаКомментарии    РазмерПиры
2018-04-05 U Тайна Коко / Coco (2017) BDRip 1080p от ExKinoRay | Лицензия 9.00 GB ↑ 779 ↓ 38

Показать еще раздачи по запросу тайна:
2018-10-26 U Семейная тайна [01-04 из 04] (2018) SATRip 2.42 GB ↑ 115 ↓ 62
2018-10-06 U Тайна Ватиканской рукописи: великое пророчество о России (2018) SATRip 1.31 GB ↑ 247 ↓ 36
2018-09-26 U Улика из прошлого. Дело гастронома №1: тайна торговой мафии (2018) SATRip 513.44 MB ↑ 77 ↓ 13
2018-09-19 U Улика из прошлого. Тайна эпидемий: смерть из пробирки (2018) SATRip 489.55 MB ↑ 71 ↓ 9
2018-09-13 U Секретная папка. Тайна агента Вертера (2018) SATRip 506.24 MB ↑ 72 ↓ 11
2018-09-04 U Загадки века. Мина для Хрущева: тайна капитана Крэбба (2018) SATRip 536.78 MB ↑ 138 ↓ 9
2018-08-28 U Агата Кристи - Карибская тайна (2018) MP3 478.64 MB ↑ 21 ↓ 7

Отзывы
Зарегистрируйтесь чтобы добавить комментарий.
Обратная связь
Copyleft ©