↑↓Torrent.by
Поиск
Логин: Регистрация
Пароль: Восстановить пароль
Загрузка...

Тайна Коко / Coco (2017) BDRemux 1080p от ExKinoRay | Лицензия

Скачать tayna-koko-coco-2017-bdremux-1080p-ot-exkinoray-licenziya.torrent
U Магнитная ссылка Размер: 21.43 GB Раздают: 130 Качают: 9 Добавлен: 2018-04-05 17:22:47
Тайна Коко / Coco (2017) BDRemux 1080p от ExKinoRay | Лицензия

Название: Тайна Коко
Оригинальное название: Coco
Год выхода: 2017
Жанр: Мультфильм, мюзикл, фэнтези, комедия, детектив, приключения, семейный
Режиссер: Ли Анкрич, Эдриан Молина
В ролях: Энтони Гонсалес, Гаэль Гарсиа Берналь, Бенджамин Брэтт, Аланна Юбак, Рене Виктор, Хайме Камиль, Альфонсо Арау, Херберт Сигенса, Габриэль Иглесиас, Ломбардо Бойяр

О фильме:
12-летний Мигель живёт в мексиканской деревушке в семье сапожников и тайно мечтает стать музыкантом. Тайно — потому что в его семейном клане музыка считается проклятием. Когда-то его прапрадед оставил свою жену, прапрабабку Мигеля, ради мечты, которая теперь не даёт спокойно жить Мигелю. С тех пор музыкальная тема в семье стала табу. Мигель обнаруживает, что между ним и его любимым певцом Эрнесто де ла Крусом, ныне покойным, существует некая — пока неназванная — связь. Паренёк отправляется к своему кумиру в Страну Мёртвых, где встречает души своих предков. Мигель знакомится там с духом-трикстером по имени Гектор (в облике скелета), который становится его проводником. Вдвоём они отправляются на поиски де ла Круса.

Страна: США
Студия: Pixar Animation Studios, Walt Disney Pictures
Продолжительность: 01:45:02
Перевод: Дублированный | Лицензия

Качество: BDRemux 1080p
Видео: MPEG-4 AVC, 1920x1080, 24.1 Mbit/s, 23.976 fps
Звук:
Аудио #01: 48 kHz, AC3, 5.1, 640 Kbps | Дублированный | RUS |
Аудио #02: 48 kHz, DTS-HD MA, 7.1, 4478 Kbps | Оригинал |  ENG |
Субтитры: Русские, английские

Релиз: Автор релиза:


[+] MI
General
Unique ID                   : 275921176884753526775075604164948197758 (0xCF947C55DF0AB8FF6A3C4F8340C3017E)
Complete name               : C:Video111Coco.2017.Lic.BDREMUX.1080p.ExKinoRay.mkv
Format                      : Matroska
Format version              : Version 4 / Version 2
File size                   : 21.4 GiB
Duration                    : 1 h 45 min
Overall bit rate mode       : Variable
Overall bit rate            : 29.2 Mb/s
Movie name                  : Coco 2017 from ExKinoRay
Encoded date                : UTC 2018-04-05 14:32:01
Writing application         : mkvmerge v22.0.0 ('At The End Of The World') 64-bit
Writing library             : libebml v1.3.5 + libmatroska v1.4.8

Video
ID                          : 1
Format                      : AVC
Format/Info                 : Advanced Video Codec
Format profile              : High@L4.1
Format settings             : CABAC / 4 Ref Frames
Format settings, CABAC      : Yes
Format settings, ReFrames   : 4 frames
Format settings, GOP        : M=1, N=12
Codec ID                    : V_MPEG4/ISO/AVC
Duration                    : 1 h 45 min
Bit rate mode               : Variable
Bit rate                    : 24.1 Mb/s
Maximum bit rate            : 32.0 Mb/s
Width                       : 1 920 pixels
Height                      : 1 080 pixels
Display aspect ratio        : 16:9
Frame rate mode             : Constant
Frame rate                  : 23.976 (23976/1000) FPS
Original frame rate         : 23.976 (24000/1001) FPS
Color space                 : YUV
Chroma subsampling          : 4:2:0
Bit depth                   : 8 bits
Scan type                   : Progressive
Bits/(Pixel*Frame)          : 0.484
Stream size                 : 17.7 GiB (82%)
Language                    : English
Default                     : Yes
Forced                      : No

Audio #1
ID                          : 2
Format                      : AC-3
Format/Info                 : Audio Coding 3
Codec ID                    : A_AC3
Duration                    : 1 h 45 min
Bit rate mode               : Constant
Bit rate                    : 640 kb/s
Channel(s)                  : 6 channels
Channel positions           : Front: L C R, Side: L R, LFE
Sampling rate               : 48.0 kHz
Frame rate                  : 31.250 FPS (1536 SPF)
Bit depth                   : 16 bits
Compression mode            : Lossy
Stream size                 : 481 MiB (2%)
Title                       : Dub [License]
Language                    : Russian
Service kind                : Complete Main
Default                     : Yes
Forced                      : Yes

Audio #2
ID                          : 3
Format                      : DTS
Format/Info                 : Digital Theater Systems
Format profile              : MA / Core
Codec ID                    : A_DTS
Duration                    : 1 h 45 min
Bit rate mode               : Variable / Constant
Bit rate                    : 4 478 kb/s / 1 509 kb/s
Channel(s)                  : 8 channels / 6 channels
Channel positions           : Front: L C R, Side: L R, Back: L R, LFE / Front: L C R, Side: L R, LFE
Sampling rate               : 48.0 kHz
Frame rate                  : 93.750 FPS (512 SPF)
Bit depth                   : 24 bits
Compression mode            : Lossless / Lossy
Stream size                 : 3.29 GiB (15%)
Title                       : Original
Language                    : English
Default                     : No
Forced                      : No

Text #1
ID                          : 4
Format                      : UTF-8
Codec ID                    : S_TEXT/UTF8
Codec ID/Info               : UTF-8 Plain Text
Duration                    : 1 s 1 ms
Bit rate                    : 255 b/s
Count of elements           : 1
Stream size                 : 32.0 Bytes (0%)
Title                       : Forced
Language                    : Russian
Default                     : Yes
Forced                      : No

Text #2
ID                          : 5
Format                      : UTF-8
Codec ID                    : S_TEXT/UTF8
Codec ID/Info               : UTF-8 Plain Text
Duration                    : 1 h 34 min
Bit rate                    : 94 b/s
Count of elements           : 1168
Stream size                 : 65.7 KiB (0%)
Title                       : Full
Language                    : Russian
Default                     : No
Forced                      : No

Text #3
ID                          : 6
Format                      : UTF-8
Codec ID                    : S_TEXT/UTF8
Codec ID/Info               : UTF-8 Plain Text
Duration                    : 1 h 37 min
Bit rate                    : 63 b/s
Count of elements           : 1441
Stream size                 : 45.6 KiB (0%)
Title                       : Full
Language                    : English
Default                     : No
Forced                      : No

Text #4
ID                          : 7
Format                      : UTF-8
Codec ID                    : S_TEXT/UTF8
Codec ID/Info               : UTF-8 Plain Text
Duration                    : 1 h 38 min
Bit rate                    : 77 b/s
Count of elements           : 1722
Stream size                 : 55.9 KiB (0%)
Title                       : SDH
Language                    : English
Default                     : No
Forced                      : No

Text #5
ID                          : 8
Format                      : UTF-8
Codec ID                    : S_TEXT/UTF8
Codec ID/Info               : UTF-8 Plain Text
Duration                    : 1 h 38 min
Bit rate                    : 109 b/s
Count of elements           : 1723
Stream size                 : 78.5 KiB (0%)
Title                       : SDH Colored
Language                    : English
Default                     : No
Forced                      : No

Menu
00:00:00.000                : en:Chapter 1
00:06:40.191                : en:Chapter 2
00:08:41.520                : en:Chapter 3
00:11:13.589                : en:Chapter 4
00:14:20.317                : en:Chapter 5
00:17:06.942                : en:Chapter 6
00:18:20.933                : en:Chapter 7
00:22:05.991                : en:Chapter 8
00:24:19.958                : en:Chapter 9
00:27:44.829                : en:Chapter 10
00:29:07.912                : en:Chapter 11
00:32:15.308                : en:Chapter 12
00:35:18.407                : en:Chapter 13
00:41:25.524                : en:Chapter 14
00:47:04.696                : en:Chapter 15
00:50:54.175                : en:Chapter 16
00:54:23.885                : en:Chapter 17
00:56:45.026                : en:Chapter 18
01:01:42.615                : en:Chapter 19
01:03:28.137                : en:Chapter 20
01:08:58.217                : en:Chapter 21
01:15:17.262                : en:Chapter 22
01:18:56.773                : en:Chapter 23
01:21:31.761                : en:Chapter 24
01:24:31.816                : en:Chapter 25
01:28:23.464                : en:Chapter 26
01:33:14.755                : en:Chapter 27
01:36:10.472                : en:Chapter 28



Скриншоты:
[+] Всего файлов в раздаче - 1:
Coco.2017.Lic.BDREMUX.1080p.ExKinoRay.mkv21.43 GB

Текущая раздача:
ДатаКомментарии    РазмерПиры
2018-04-05 U Тайна Коко / Coco (2017) BDRemux 1080p от ExKinoRay | Лицензия 21.43 GB ↑ 130 ↓ 9

Показать еще раздачи по запросу тайна:
2018-04-14 U Тэд-путешественник и тайна царя Мидаса / Tadeo Jones 2: El secreto del Rey Midas (2017) BDRip 1080p | Лицензия 8.72 GB ↑ 64 ↓ 21
2018-04-14 U Тэд-путешественник и тайна царя Мидаса / Tadeo Jones 2: El secreto del Rey Midas (2017) BDRip 720p | Лицензия 4.03 GB ↑ 47 ↓ 18
2018-04-13 U Тэд-путешественник и тайна царя Мидаса / Tadeo Jones 2: El secreto del Rey Midas (2017) BDRip от MegaPeer | Лицензия 1.46 GB ↑ 54 ↓ 26
2018-04-08 U Тайна Коко / Coco (2017) HDRip от Scarabey | Лицензия 1.49 GB ↑ 830 ↓ 23
2018-04-07 U Тайна Коко / Coco (2017) HDRip от Scarabey | Лицензия 744.43 MB ↑ 85 ↓ 2
2018-04-07 U Тайна Коко / Coco (2017) BDRip-AVC от HELLYWOOD | Лицензия 1.46 GB ↑ 28 ↓ 9
2018-04-07 U Тайна Коко / Coco (2017) BDRip 1080p от Ash61 | 3D-Video | halfOU | Лицензия 8.42 GB ↑ 25 ↓ 12

Отзывы
Зарегистрируйтесь чтобы добавить комментарий.
Обратная связь
Copyleft ©