↑↓Torrent.by
Поиск
Логин: Регистрация
Пароль: Восстановить пароль
Загрузка...

Тайна Коко / Coco (2017) BDRip 1080p от qqss44 & MegaPeer | Лицензия

Скачать tayna-koko-coco-2017-bdrip-1080p-ot-qqss44-megapeer-licenziya.torrent
U Магнитная ссылка Размер: 6.34 GB Раздают: 939 Качают: 31 Добавлен: 2018-04-05 19:29:29
Тайна Коко / Coco (2017) BDRip 1080p от qqss44 & MegaPeer | Лицензия

Анонсы 1080p от qqss44

Информация о фильме
Название: Тайна Коко
Оригинальное название: Coco
Год выпуска: 2017
Жанр: Мультфильм, мюзикл, фэнтези, комедия, детектив, приключения, семейный
Режиссер: Ли Анкрич, Эдриан Молина
В ролях: Энтони Гонсалес, Гаэль Гарсиа Берналь, Бенджамин Брэтт, Аланна Юбак, Рене Виктор, Хайме Камиль, Альфонсо Арау, Херберт Сигенса, Габриэль Иглесиас, Ломбардо Бойяр

О фильме:
12-летний Мигель живет в мексиканской деревушке в семье сапожников и тайно мечтает стать музыкантом. Тайно — потому что в его семейном клане музыка считается проклятием. Когда-то его прадед оставил свою жену, прабабку Мигеля, ради мечты, которая теперь не дает спокойно жить Мигелю. С тех пор музыкальная тема в семье стала табу. Мигель обнаруживает, что между ним и его любимым певцом Эрнесто де ла Крусом, ныне покойным, существует некая — пока неназванная — связь. Паренек отправляется к своему кумиру в Страну Мертвых, где встречает души своих предков. Коко знакомится там с духом-трикстером по имени Эктор (в облике скелета), который становится его напарником-проводником. Вдвоем они отправляются на поиски де ла Круса.

Страна: США
Студия: Pixar Animation Studios, Walt Disney Pictures
Продолжительность: 01:45:02
Перевод: Дублированный | Лицензия

Файл
Формат: MKV, BDRip 1080p
Видео: MPEG-4 AVC, 8000 Кбит/с, 1920x804
Aудио#1: [RUS] AC3 | 48 KHz | 5.1 (Front: L С R Side: L R) + LFE | ~640 kbps
Субтитры: русские (форсированные и полные)
Релиз от:


[+] МИ

Общее
Уникальный идентификатор                 : 252821769396450244425103124990624274321 (0xBE33B39DD9C004E38F8A1FE329241791)
Полное имя                               : H:Coco.(2017).BDRip-1080p.MegaPeer.(qqss44).mkv
Формат                                   : Matroska
Версия формата                           : Version 2
Размер файла                             : 6,34 Гбайт
Продолжительность                        : 1 ч. 45 м.
Общий поток                              : 8642 Кбит/сек
Название фильма                          : Coco.(2017).MegaPeer.(qqss44)
Дата кодирования                         : UTC 2018-04-05 15:29:14
Программа кодирования                    : mkvmerge v5.8.0 ('No Sleep / Pillow') built on Sep  2 2012 15:37:04
Библиотека кодирования                   : libebml v1.2.3 + libmatroska v1.3.0

Видео
Идентификатор                            : 1
Формат                                   : AVC
Формат/Информация                        : Advanced Video Codec
Профиль формата                          : High@L4.1
Параметр CABAC формата                   : Да
Параметр ReFrames формата                : 5 кадров
Идентификатор кодека                     : V_MPEG4/ISO/AVC
Продолжительность                        : 1 ч. 45 м.
Битрейт                                  : 8000 Кбит/сек
Ширина                                   : 1920 пикселей
Высота                                   : 804 пикселя
Соотношение сторон                       : 2,40:1
Режим частоты кадров                     : Постоянный
Частота кадров                           : 23,976 (24000/1001) кадра/сек
Цветовое пространство                    : YUV
Субдискретизация насыщенности            : 4:2:0
Битовая глубина                          : 8 бит
Тип развёртки                            : Прогрессивная
Бит/(Пиксели*Кадры)                      : 0.216
Размер потока                            : 5,74 Гбайт (91%)
Библиотека кодирования                   : x264 core 152 r2851kMod ba24899
Настройки программы                      : cabac=1 / ref=5 / deblock=1:0:0 / analyse=0x3:0x113 / me=umh / subme=11 / psy=1 / fade_compensate=0.00 / psy_rd=1.00:0.00 / mixed_ref=1 / me_range=32 / chroma_me=1 / trellis=2 / 8x8dct=1 / cqm=0 / deadzone=21,11 / fast_pskip=0 / chroma_qp_offset=-2 / threads=12 / lookahead_threads=2 / sliced_threads=0 / nr=0 / decimate=0 / interlaced=0 / bluray_compat=0 / constrained_intra=0 / bframes=8 / b_pyramid=2 / b_adapt=2 / b_bias=0 / direct=3 / weightb=1 / open_gop=0 / weightp=2 / keyint=240 / keyint_min=23 / scenecut=40 / intra_refresh=0 / rc_lookahead=40 / rc=2pass / mbtree=0 / bitrate=8000 / ratetol=1.0 / qcomp=0.65 / qpmin=0 / qpmax=69 / qpstep=4 / cplxblur=20.0 / qblur=0.5 / vbv_maxrate=50000 / vbv_bufsize=62500 / nal_hrd=none / filler=0 / ip_ratio=1.40 / pb_ratio=1.30 / aq=3:1.00
Язык                                     : English
Default                                  : Да
Forced                                   : Нет

Аудио
Идентификатор                            : 2
Формат                                   : AC-3
Формат/Информация                        : Audio Coding 3
Расширение режима                        : CM (complete main)
Параметр Endianness формата              : Big
Идентификатор кодека                     : A_AC3
Продолжительность                        : 1 ч. 45 м.
Вид битрейта                             : Постоянный
Битрейт                                  : 640 Кбит/сек
Каналы                                   : 6 каналов
Расположение каналов                     : Front: L C R, Side: L R, LFE
Частота                                  : 48,0 КГц
Частота кадров                           : 31,250 кадров/сек (1536 spf)
Метод сжатия                             : С потерями
Размер потока                            : 481 Мбайт (7%)
Язык                                     : Russian
Default                                  : Да
Forced                                   : Нет

Текст #1
Идентификатор                            : 3
Формат                                   : UTF-8
Идентификатор кодека                     : S_TEXT/UTF8
Идентификатор кодека/Информация          : UTF-8 Plain Text
Заголовок                                : FORCED
Язык                                     : Russian
Default                                  : Да
Forced                                   : Нет

Текст #2
Идентификатор                            : 4
Формат                                   : UTF-8
Идентификатор кодека                     : S_TEXT/UTF8
Идентификатор кодека/Информация          : UTF-8 Plain Text
Заголовок                                : FULL
Язык                                     : Russian
Default                                  : Нет
Forced                                   : Нет

Меню
00:00:00.000                             : en:Chapter 01
00:06:40.191                             : en:Chapter 02
00:08:41.521                             : en:Chapter 03
00:11:13.589                             : en:Chapter 04
00:14:20.317                             : en:Chapter 05
00:17:06.942                             : en:Chapter 06
00:18:20.933                             : en:Chapter 07
00:22:05.991                             : en:Chapter 08
00:24:19.958                             : en:Chapter 09
00:27:44.829                             : en:Chapter 10
00:29:07.912                             : en:Chapter 11
00:32:15.308                             : en:Chapter 12
00:35:18.407                             : en:Chapter 13
00:41:25.524                             : en:Chapter 14
00:47:04.696                             : en:Chapter 15
00:50:54.176                             : en:Chapter 16
00:54:23.885                             : en:Chapter 17
00:56:45.026                             : en:Chapter 18
01:01:42.615                             : en:Chapter 19
01:03:28.137                             : en:Chapter 20
01:08:58.217                             : en:Chapter 21
01:15:17.262                             : en:Chapter 22
01:18:56.982                             : en:Chapter 23
01:21:31.761                             : en:Chapter 24
01:24:31.816                             : en:Chapter 25
01:28:23.339                             : en:Chapter 26
01:33:14.672                             : en:Chapter 27
01:36:10.473                             : en:Chapter 28




Скриншоты:
[+] Всего файлов в раздаче - 1:
Coco.(2017).BDRip-1080p.MegaPeer.(qqss44).mkv6.34 GB

Текущая раздача:
ДатаКомментарии    РазмерПиры
2018-04-05 U Тайна Коко / Coco (2017) BDRip 1080p от qqss44 & MegaPeer | Лицензия 6.34 GB ↑ 939 ↓ 31

Показать еще раздачи по запросу тайна:
2018-04-14 U Тэд-путешественник и тайна царя Мидаса / Tadeo Jones 2: El secreto del Rey Midas (2017) BDRip 1080p | Лицензия 8.72 GB ↑ 51 ↓ 21
2018-04-14 U Тэд-путешественник и тайна царя Мидаса / Tadeo Jones 2: El secreto del Rey Midas (2017) BDRip 720p | Лицензия 4.03 GB ↑ 41 ↓ 18
2018-04-13 U Тэд-путешественник и тайна царя Мидаса / Tadeo Jones 2: El secreto del Rey Midas (2017) BDRip от MegaPeer | Лицензия 1.46 GB ↑ 54 ↓ 25
2018-04-08 U Тайна Коко / Coco (2017) HDRip от Scarabey | Лицензия 1.49 GB ↑ 831 ↓ 21
2018-04-07 U Тайна Коко / Coco (2017) HDRip от Scarabey | Лицензия 744.43 MB ↑ 85 ↓ 2
2018-04-07 U Тайна Коко / Coco (2017) BDRip-AVC от HELLYWOOD | Лицензия 1.46 GB ↑ 29 ↓ 8
2018-04-07 U Тайна Коко / Coco (2017) BDRip 1080p от Ash61 | 3D-Video | halfOU | Лицензия 8.42 GB ↑ 25 ↓ 12

Отзывы
Зарегистрируйтесь чтобы добавить комментарий.
Обратная связь
Copyleft ©