↑↓Torrent.by
Поиск
Логин: Регистрация
Пароль: Восстановить пароль
Загрузка...

Отряд самоубийц: Строгое наказание / Suicide Squad: Hell to Pay (2018) WEBRip от Portablius | Flarrow Films

Скачать otryad-samoubiyc-strogoe-nakazanie-suicide-squad-hell-to-pay-2018-webrip-ot-portablius-flarrow-films.torrent
U Магнитная ссылка Размер: 698.00 MB Раздают: 77 Качают: 14 Добавлен: 2018-04-07 05:38:37
Отряд самоубийц: Строгое наказание / Suicide Squad: Hell to Pay (2018) WEBRip от Portablius | Flarrow Films

Название: Отряд самоубийц: Строгое наказание
Оригинальное название: Suicide Squad: Hell to Pay
Год выхода: 2018
Жанр: мультфильм, боевик
Режиссер: Сэм Лью
В ролях: Кристиан Слэйтер, Си Томас Хауэлл, Тара Стронг, Ванесса Уильямс, Даня Рамирес, Билли Браун, Лиам МакИнтайр, Кристин Бауэр, Мэттью Мерсер, Гидеон Эмери

О фильме: Целью отряда Икс становится мощный мистический объект, который они попытаются украсть, рискуя жизнями.

Страна: США
Продолжительность: 01:26:06
Перевод: Любительский (многоголосый, закадровый) | Flarrow Films
Субтитры: Нет

присутствует ненормативная лексика!

Файл
Кодек: XviD
Качество: WEBRip
Видео: 720x400 (1.80:1), 23.976 fps, XviD build 73 ~931 kbps avg, 0.14 bit/pixel
Звук: 48 kHz, MPEG Layer 3, 2 ch, ~192.00 kbps avg


[+] MediaInfo
General
Complete name               : Suicide.Squad.Hell.to.Pay.2018.WEBRip.ot.Portablius.avi
Format                      : AVI
Format/Info                 : Audio Video Interleave
File size                   : 698 MiB
Duration                    : 1 h 26 min
Overall bit rate            : 1 133 kb/s
Writing application         : VirtualDubMod 1.5.10.3 | www.virtualdub-fr.org || (build 2550/release)
Writing library             : VirtualDubMod build 2550/release

Video
ID                          : 0
Format                      : MPEG-4 Visual
Format profile              : Advanced Simple@L5
Format settings, BVOP       : 1
Format settings, QPel       : No
Format settings, GMC        : No warppoints
Format settings, Matrix     : Custom
Codec ID                    : XVID
Codec ID/Hint               : XviD
Duration                    : 1 h 26 min
Bit rate                    : 932 kb/s
Width                       : 720 pixels
Height                      : 400 pixels
Display aspect ratio        : 16:9
Frame rate                  : 23.976 (24000/1001) FPS
Original frame rate         : 23.976 (23976/1000) FPS
Color space                 : YUV
Chroma subsampling          : 4:2:0
Bit depth                   : 8 bits
Scan type                   : Progressive
Compression mode            : Lossy
Bits/(Pixel*Frame)          : 0.135
Stream size                 : 574 MiB (82%)
Writing library             : XviD 73

Audio
ID                          : 1
Format                      : MPEG Audio
Format version              : Version 1
Format profile              : Layer 3
Codec ID                    : 55
Codec ID/Hint               : MP3
Duration                    : 1 h 26 min
Bit rate mode               : Constant
Bit rate                    : 192 kb/s
Channel(s)                  : 2 channels
Sampling rate               : 48.0 kHz
Compression mode            : Lossy
Stream size                 : 118 MiB (17%)
Alignment                   : Aligned on interleaves
Interleave, duration        : 42  ms (1.00 video frame)
Interleave, preload duratio : 504  ms
Writing library             : LAME3.99r
Encoding settings           : -m s -V 4 -q 2 -lowpass 18.6 -b 192




Скриншоты:
[+] Всего файлов в раздаче - 1:
Suicide.Squad.Hell.to.Pay.2018.WEBRip.ot.Portablius.avi698.00 MB

Текущая раздача:
ДатаКомментарии    РазмерПиры
2018-04-07 U Отряд самоубийц: Строгое наказание / Suicide Squad: Hell to Pay (2018) WEBRip от Portablius | Flarrow Films 698.00 MB ↑ 77 ↓ 14

Показать еще раздачи по запросу отряд:
2018-08-28 U Звездный отряд: Война на Марсе / Crimson Force (2005) WEB-DLRip 1080p | P 5.06 GB ↑ 44 ↓ 49
2018-05-27 U Отряд особого назначения (1978) HDTVRip 720p от KORSAR 3.20 GB ↑ 70 ↓ 26
2018-04-17 U Отряд самоубийц: Строгое наказание / Suicide Squad: Hell to Pay (2018) BDRip 1080p | Flarrow Films 5.20 GB ↑ 92 ↓ 24
2018-04-05 U Отряд самоубийц: Строгое наказание / Suicide Squad: Hell to Pay (2018) WEBRip 720p | Flarrow Films 2.91 GB ↑ 319 ↓ 58
2018-03-31 U Отряд самоубийц: Строгое наказание. / Suicide Squad: Hell to Pay (2018) WEBRip 720p | ZM-SHOW 1.95 GB ↑ 119 ↓ 98
2018-03-13 U Паранормальный отряд / Ghost Team (2016) WEB-DL 1080p | iTunes 3.16 GB ↑ 241 ↓ 56
2018-03-12 U Паранормальный отряд / Ghost Team (2016) WEB-DLRip | iTunes 1.37 GB ↑ 310 ↓ 92

Отзывы
Зарегистрируйтесь чтобы добавить комментарий.
Обратная связь
Copyleft ©