↑↓Torrent.by
Поиск
Логин: Регистрация
Пароль: Восстановить пароль
Загрузка...

Черная вода (2017) WEB-DLRip-AVC от ExKinoRay | iTunes

Скачать chernaya-voda-2017-web-dlrip-avc-ot-exkinoray-itunes.torrent
U Магнитная ссылка Размер: 745.41 MB Раздают: 78 Качают: 40 Добавлен: 2018-04-08 12:23:54
Черная вода (2017) WEB-DLRip-AVC от ExKinoRay | iTunes

Название: Черная вода
Год выхода: 2017
Жанр:  Ужасы, драма
Режиссёр: Роман Каримов
В ролях: Ирина Старшенбаум, Евгений Алёхин, Дмитрий Богдан, Сергей Белый, Наталья Шапошникова, Инна Егорова

О фильме :
Трое молодых людей — Максим, его брат Пётр и его новая девушка Полина — приезжают в забытую богом деревню, где поселяются на старом заброшенном корабле, у которого среди местных очень дурная слава. Неожиданно ночью Полина исчезает, и братья бросаются на её поиски. А когда она так же неожиданно возвращается, вокруг начинают происходить странные вещи. Максим опасается за девушку, а у его брата возникают подозрения, что это… уже не Полина.

Страна: Россия
Производство: Кинокомпания «Yellow, Black and White», Артлайт
Продолжительность: 01:52:40
Перевод: Не требуется
Язык: Русский | iTunes

Файл
Формат: MKV
Качество: WEB-DLRip-AVC
Видео: MPEG-4 AVC, 768x320, ~ 848 Кбит/с
Аудио:  AAC-HE, 2 ch, ~ 76 Кбит/с

Релиз:


[+] MI
Общее
Уникальный идентификатор : 209886044515515092388500771497898619140 (0x9DE694F11DC3CF0DBF8185EC7DF33104)
Полное имя : D:MOVIESChyornaya.voda.2017.ExKinoRay.mkv
Формат : Matroska
Версия формата : Version 4 / Version 2
Размер файла : 745 Мбайт
Продолжительность : 1 ч. 52 м.
Общий поток : 925 Кбит/сек
Дата кодирования : UTC 2018-04-08 05:50:58
Программа кодирования : mkvmerge v15.0.0 ('Duel with the Devil') 64-bit
Библиотека кодирования : libebml v1.3.5 + libmatroska v1.4.5

Видео
Идентификатор : 1
Формат : AVC
Формат/Информация : Advanced Video Codec
Профиль формата : High@L4.1
Параметр CABAC формата : Да
Параметр RefFrames формата : 10 кадров
Идентификатор кодека : V_MPEG4/ISO/AVC
Продолжительность : 1 ч. 52 м.
Битрейт : 848 Кбит/сек
Ширина : 768 пикселей
Высота : 320 пикселей
Соотношение сторон : 2,40:1
Режим частоты кадров : Постоянный
Частота кадров : 24,000 кадра/сек
Цветовое пространство : YUV
Субдискретизация насыщенности : 4:2:0
Битовая глубина : 8 бит
Тип развёртки : Прогрессивная
Бит/(Пиксели*Кадры) : 0.144
Размер потока : 683 Мбайт (92%)
Библиотека кодирования : x264 core 155 r2901 7d0ff22
Настройки программы : cabac=1 / ref=10 / deblock=1:-3:-3 / analyse=0x3:0x133 / me=umh / subme=11 / psy=1 / psy_rd=1.00:0.12 / mixed_ref=1 / me_range=32 / chroma_me=1 / trellis=2 / 8x8dct=1 / cqm=0 / deadzone=21,11 / fast_pskip=0 / chroma_qp_offset=-3 / threads=6 / lookahead_threads=1 / sliced_threads=0 / nr=0 / decimate=0 / interlaced=0 / bluray_compat=0 / constrained_intra=0 / bframes=10 / b_pyramid=2 / b_adapt=2 / b_bias=0 / direct=3 / weightb=1 / open_gop=0 / weightp=2 / keyint=240 / keyint_min=23 / scenecut=40 / intra_refresh=0 / rc_lookahead=40 / rc=2pass / mbtree=1 / bitrate=848 / ratetol=1.0 / qcomp=0.60 / qpmin=0 / qpmax=69 / qpstep=4 / cplxblur=20.0 / qblur=0.5 / vbv_maxrate=50000 / vbv_bufsize=62500 / nal_hrd=none / filler=0 / ip_ratio=1.40 / aq=3:1.00
Default : Да
Forced : Нет

Аудио
Идентификатор : 2
Формат : AAC
Формат/Информация : Advanced Audio Codec
Профиль формата : HE-AAC / LC
Идентификатор кодека : A_AAC
Продолжительность : 1 ч. 52 м.
Битрейт : 76,0 Кбит/сек
Каналы : 2 канала
Расположение каналов : Front: L R
Частота : 48,0 КГц / 24,0 КГц
Частота кадров : 23,438 кадра/сек (1024 SPF)
Метод сжатия : С потерями
Задержка видео : 31 мс.
Размер потока : 61,2 Мбайт (8%)
Default : Да
Forced : Нет

Меню
00:00:00.000 : en:Глава 1
00:04:52.083 : en:Глава 2
00:11:20.374 : en:Глава 3
00:17:47.582 : en:Глава 4
00:25:17.123 : en:Глава 5
00:33:38.539 : en:Глава 6
00:42:19.205 : en:Глава 7
00:47:43.246 : en:Глава 8
00:54:42.037 : en:Глава 9
01:01:05.162 : en:Глава 10
01:08:26.912 : en:Глава 11
01:15:03.953 : en:Глава 12
01:20:51.494 : en:Глава 13
01:26:08.619 : en:Глава 14
01:32:36.285 : en:Глава 15
01:38:22.410 : en:Глава 16



Скриншоты:
[+] Всего файлов в раздаче - 1:
Chyornaya.voda.2017.ExKinoRay.mkv745.41 MB

Текущая раздача:
ДатаКомментарии    РазмерПиры
2018-04-08 U Черная вода (2017) WEB-DLRip-AVC от ExKinoRay | iTunes 745.41 MB ↑ 78 ↓ 40

Показать еще раздачи по запросу черная:
2018-04-21 U Черная бабочка / Black Butterfly (2017) BDRip | A 1.47 GB ↑ 60 ↓ 26
2018-03-24 U Васильев Андрей - Ученики Ворона 4. Черная Весна (2018) MP3 751.54 MB ↑ 33 ↓ 20
2018-01-18 U Черная молния / Black Lightning [01x01 из 13] (2017) WEBRip | IdeaFilm 669.98 MB ↑ 30 ↓ 7
2018-01-17 U Черная молния / Black Lightning [01x01 из 13] (2018) HDTVRip | GostFilm 454.92 MB ↑ 67 ↓ 16
2018-01-17 U Черная молния / Black Lightning [01x01 из 13] (2018) HDTVRip | ColdFilm 509.18 MB ↑ 82 ↓ 5
2018-01-17 U Черная молния / Black Lightning [01x01 из 13] (2018) HDTVRip 720p | ColdFilm 1.23 GB ↑ 56 ↓ 8
2018-01-05 U Серия книг - «Черная Fantasy» [39 книг] (2008-2017) FB2 86.82 MB ↑ 418 ↓ 25

Отзывы
Зарегистрируйтесь чтобы добавить комментарий.
Обратная связь
Copyleft ©