↑↓Torrent.by
Поиск
Логин: Регистрация
Пароль: Восстановить пароль
Загрузка...

Самая обаятельная и привлекательная (1985) WEBRip 1080р

Скачать samaya-obayatelnaya-i-privlekatelnaya-1985-webrip-1080r.torrent
U Магнитная ссылка Размер: 2.39 GB Раздают: 43 Качают: 24 Добавлен: 2018-04-08 13:32:43
Самая обаятельная и привлекательная (1985) WEBRip 1080р

Название: Самая обаятельная и привлекательная
Год выхода: 1985
Жанр:  Мелодрама, комедия
Режиссер: Геральд Бежанов
В ролях: Ирина Муравьёва, Татьяна Васильева, Александр Абдулов, Леонид Куравлёв, Михаил Кокшенов, Людмила Иванова, Лариса Удовиченко, Владимир Носик, Александр Ширвиндт, Лев Перфилов, Любовь Соколова, Вероника Изотова, Виктор Ильичёв, Гурам Абесадзе, Виктор Филиппов, Людмила Карауш, Георгий Мартиросян, Владимир Мышкин, Яков Саркисов, Вера Сотникова, Игорь Ясулович, Екатерина Куравлева, Геральд Бежанов, Анатолий Эйрамджан

О фильме:
У инженера Нади Клюевой максимум общественной, но минимум личной жизни. Все меняется, когда она случайно встречает в автобусе свою старую знакомую, школьную одноклассницу Сусанну, ныне работающую социологом на заводе бытовых кондиционеров. Сусанна решает наладить личную жизнь своей подруги, используя научный метод.

Страна: СССР
Студия: Мосфильм
Продолжительность: 01:20:16
Перевод: Не требуется

Файл
Качество: WEBRip 1080р
Видео: AVC/H.264, 1920x820 (2.35:1), ~4075 Kbps
Аудио: AC3, 2 ch, 192 Kbps


[+] M/I
Общее
Уникальный идентификатор                 : 230430600255678741212365591509909208792 (0xAD5B51BE8876325B97160C4412F97ED8)
Полное имя                               : G:Самая обаятельная и привлекательная (1985).by.Алехаndr.mkv
Формат                                   : Matroska
Версия формата                           : Version 4 / Version 2
Размер файла                             : 2,39 Гбайт
Продолжительность                        : 1 ч. 20 м.
Общий поток                              : 4270 Кбит/сек
Дата кодирования                         : UTC 2018-04-07 13:15:45
Программа кодирования                    : mkvmerge v22.0.0 ('At The End Of The World') 64-bit
Библиотека кодирования                   : libebml v1.3.5 + libmatroska v1.4.8 / Lavf57.71.100

Видео
Идентификатор                            : 1
Формат                                   : AVC
Формат/Информация                        : Advanced Video Codec
Профиль формата                          : Main@L4
Настройки формата                        : CABAC / 2 Ref Frames
Параметр CABAC формата                   : Да
Параметр RefFrames формата               : 2 кадра
Параметр GOP формата                     : M=1, N=25
Идентификатор кодека                     : V_MPEG4/ISO/AVC
Продолжительность                        : 1 ч. 20 м.
Битрейт                                  : 4076 Кбит/сек
Ширина                                   : 1920 пикселей
Высота                                   : 820 пикселей
Соотношение сторон                       : 2,35:1
Режим частоты кадров                     : Постоянный
Частота кадров                           : 25,000 кадров/сек
Цветовое пространство                    : YUV
Субдискретизация насыщенности            : 4:2:0
Битовая глубина                          : 8 бит
Тип развёртки                            : Прогрессивная
Бит/(Пиксели*Кадры)                      : 0.104
Размер потока                            : 2,29 Гбайт (95%)
Default                                  : Да
Forced                                   : Нет

Аудио
Идентификатор                            : 2
Формат                                   : AC-3
Формат/Информация                        : Audio Coding 3
Идентификатор кодека                     : A_AC3
Продолжительность                        : 1 ч. 20 м.
Вид битрейта                             : Постоянный
Битрейт                                  : 192 Кбит/сек
Каналы                                   : 2 канала
Расположение каналов                     : Front: L R
Частота                                  : 48,0 КГц
Частота кадров                           : 31,250 кадров/сек (1536 SPF)
Битовая глубина                          : 16 бит
Метод сжатия                             : С потерями
Размер потока                            : 110 Мбайт (4%)
ServiceKind                      : Complete Main
Default                                  : Да
Forced                                   : Нет



Скриншоты:
[+] Всего файлов в раздаче - 1:
Самая обаятельная и привлекательная (1985).by.Алехаndr.mkv2.39 GB

Текущая раздача:
ДатаКомментарии    РазмерПиры
2018-04-08 U Самая обаятельная и привлекательная (1985) WEBRip 1080р 2.39 GB ↑ 43 ↓ 24

Показать еще раздачи по запросу самая:
2018-02-02 U Михаил Парфенов - Самая страшная книга 2018 [сборник] (2018) FB2 1К2.55 MB ↑ 465 ↓ 6
2017-09-02 U VA - Самая популярная музыка (2017) МР3 426.08 MB ↑ 505 ↓ 99
2017-08-20 U Виктор Глебов - Самая страшная книга. Фаталист (2017) FB2 3.25 MB ↑ 201 ↓ 5
2017-07-13 U Александр Север, Александр Колпакиди - Спецназ ГРУ: самая полная энциклопедия (2012) FB2 5.85 MB ↑ 216 ↓ 19
2017-05-12 U Траннуа Павел - Самая полезная настольная книга садовода и огородника (2017) FB2 5.70 MB ↑ 497 ↓ 18
2017-05-07 U Михаил Парфенов - Самая страшная книга. Зона ужаса [сборник] (2017) FB2 1К2.92 MB ↑ 265 ↓ 8
2017-05-07 U Сборник - Два взгляда. Самая новая попса (2017) MP3 675.68 MB ↑ 106 ↓ 34

Отзывы
Зарегистрируйтесь чтобы добавить комментарий.
Обратная связь
Copyleft ©