↑↓Torrent.by
Поиск
Логин: Регистрация
Пароль: Восстановить пароль
Загрузка...

Фердинанд / Ferdinand (2017) BDRip-HEVC 1080p | 60 fps | Лицензия

Скачать ferdinand-2017-bdrip-hevc-1080p-60-fps-licenziya.torrent
U Магнитная ссылка Размер: 5.82 GB Раздают: 50 Качают: 29 Добавлен: 2018-04-08 14:05:10
Фердинанд / Ferdinand (2017) BDRip-HEVC 1080p | 60 fps | Лицензия

Информация о фильме
Название: Фердинанд
Оригинальное название: Ferdinand
Год выхода: 2017
Жанр: Семейный, комедия, мультфильм
Режиссер: Карлос Салдана
Страна: США
Студия: Matt Tolmach Productions, Blue Sky Studios, Davis Entertainment, Twentieth Century Fox Animation
Продолжительность: 01:48:12
Перевод: Дублированный | Лицензия

В ролях: Джон Сина, Кейт МакКиннон, Дэвид Теннант, Бобби Каннавейл, Энтони Андерсон, Джек Гор, Джет Юргенсмейер, Найл Диас, Колин Х. Мерфи, Карлос Салдана


О фильме:
Фердинанд — самый добродушный бык во всей Испании. Несмотря на внушительные размеры и недюжинную силу, он с детства предпочитал сидеть на лужайке и любоваться цветами вместо того, чтобы бодаться с другими быками. По нелепой случайности Фердинанд был выбран среди других соплеменников для участия в бое быков в Мадриде.

 

Файл
Качество: BDRip-HEVC 1080p / 60 FPS by Cryptor (исходник BDRemux 1080p)
Формат: MKV
Видео кодек: x265
Аудио кодек: DTS, AC3
Видео: HEVC, 1920x804 (2.40:1), ~5 813 Кбит/сек, 60.000 кадр/сек, 10 bit
Аудио#1: DTS / 5.1 / 48 kHz / 768 kbps / 24 bits | Дублированный | Лицензия RUS  
Аудио#2: AC3 / 5.1 / 48 kHz / 448 kbps / 16 bits | Дублированный | Лицензия UKR  
Аудио#3: AC3 / 5.1 / 48 kHz / 640 kbps / 16 bits | Оригинал ENG  
Субтитры: Russian (Full), Ukrainian (Full), English (Full, SDH)

Релиз от: Cryptor


[+] Медиаинфо
[url=/tag/7/][/url]
General [url=/tag/7/][/url]
Unique ID                   : 13187493196498342102394803878234493272 (0x9EBD19D211E62321BA1271543B51158) [url=/tag/7/][/url]
Complete name               : D:TorrentsFerdinand.(2017).BDRip.1080p.FullHD.60FPS.HEVC.[Cryptor].mkv [url=/tag/7/][/url]
Format                      : Matroska [url=/tag/7/][/url]
Format version              : Version 4 / Version 2 [url=/tag/7/][/url]
File size                   : 5.82 GiB [url=/tag/7/][/url]
Duration                    : 1 h 48 min [url=/tag/7/][/url]
Overall bit rate            : 7 704 kb/s [url=/tag/7/][/url]
Movie name                  : Фердинанд / Ferdinand (2017) [url=/tag/7/][/url]
Encoded date                : UTC 2018-04-07 13:46:01 [url=/tag/7/][/url]
Writing application         : mkvmerge v22.0.0 ('At The End Of The World') 64-bit [url=/tag/7/][/url]
Writing library             : libebml v1.3.5 + libmatroska v1.4.8 [url=/tag/7/][/url]
Cover                       : Yes [url=/tag/7/][/url]
Attachments                 : Cover.jpg [url=/tag/7/][/url]
[url=/tag/7/][/url]
Video [url=/tag/7/][/url]
ID                          : 1 [url=/tag/7/][/url]
Format                      : HEVC [url=/tag/7/][/url]
Format/Info                 : High Efficiency Video Coding [url=/tag/7/][/url]
Format profile              : Main 10@L4.1@Main [url=/tag/7/][/url]
Codec ID                    : V_MPEGH/ISO/HEVC [url=/tag/7/][/url]
Duration                    : 1 h 48 min [url=/tag/7/][/url]
Bit rate                    : 5 813 kb/s [url=/tag/7/][/url]
Width                       : 1 920 pixels [url=/tag/7/][/url]
Height                      : 804 pixels [url=/tag/7/][/url]
Display aspect ratio        : 2.40:1 [url=/tag/7/][/url]
Frame rate mode             : Constant [url=/tag/7/][/url]
Frame rate                  : 60.000 FPS [url=/tag/7/][/url]
Color space                 : YUV [url=/tag/7/][/url]
Chroma subsampling          : 4:2:0 [url=/tag/7/][/url]
Bit depth                   : 10 bits [url=/tag/7/][/url]
Bits/(Pixel*Frame)          : 0.063 [url=/tag/7/][/url]
Stream size                 : 4.39 GiB (75%) [url=/tag/7/][/url]
Title                       : Ferdinand.(2017).BDRip.1080p.FullHD.60FPS.HEVC.[Cryptor] [url=/tag/7/][/url]
Writing library             : x265 2.6+37-1949157705ce:[Windows][GCC 6.3.0][64 bit] 10bit [url=/tag/7/][/url]
Encoding settings           : cpuid=1050111 / frame-threads=3 / numa-pools=8 / wpp / no-pmode / no-pme / no-psnr / no-ssim / log-level=2 / input-csp=1 / input-res=1920x804 / interlace=0 / total-frames=389556 / level-idc=0 / high-tier=1 / uhd-bd=0 / ref=4 / no-allow-non-conformance / no-repeat-headers / annexb / no-aud / no-hrd / info / hash=0 / no-temporal-layers / open-gop / min-keyint=25 / keyint=250 / gop-lookahead=0 / bframes=4 / b-adapt=2 / b-pyramid / bframe-bias=0 / rc-lookahead=40 / lookahead-slices=5 / scenecut=40 / radl=0 / no-intra-refresh / ctu=64 / min-cu-size=8 / no-rect / no-amp / max-tu-size=32 / tu-inter-depth=1 / tu-intra-depth=1 / limit-tu=0 / rdoq-level=0 / dynamic-rd=0.00 / no-ssim-rd / signhide / no-tskip / nr-intra=0 / nr-inter=0 / no-constrained-intra / strong-intra-smoothing / max-merge=2 / limit-refs=3 / no-limit-modes / me=1 / subme=7 / merange=57 / temporal-mvp / weightp / no-weightb / no-analyze-src-pics / deblock=0:0 / sao / no-sao-non-deblock / rd=3 / no-early-skip / rskip / no-fast-intra / no-tskip-fast / no-cu-lossless / no-b-intra / no-splitrd-skip / rdpenalty=0 / psy-rd=2.00 / psy-rdoq=0.00 / no-rd-refine / no-lossless / cbqpoffs=0 / crqpoffs=0 / rc=crf / crf=18.0 / qcomp=0.60 / qpstep=4 / stats-write=0 / stats-read=0 / ipratio=1.40 / pbratio=1.30 / aq-mode=1 / aq-strength=1.00 / cutree / zone-count=0 / no-strict-cbr / qg-size=32 / no-rc-grain / qpmax=69 / qpmin=0 / no-const-vbv / sar=1 / overscan=0 / videoformat=5 / range=0 / colorprim=1 / transfer=1 / colormatrix=1 / chromaloc=0 / display-window=0 / max-cll=0,0 / min-luma=0 / max-luma=1023 / log2-max-poc-lsb=8 / vui-timing-info / vui-hrd-info / slices=1 / no-opt-qp-pps / no-opt-ref-list-length-pps / no-multi-pass-opt-rps / scenecut-bias=0.05 / no-opt-cu-delta-qp / no-aq-motion / no-hdr / no-hdr-opt / no-dhdr10-opt / analysis-reuse-level=5 / scale-factor=0 / refine-intra=0 / refine-inter=0 / refine-mv=0 / no-limit-sao / ctu-info=0 / no-lowpass-dct / refine-mv-type=0 / copy-pic=1 [url=/tag/7/][/url]
Default                     : Yes [url=/tag/7/][/url]
Forced                      : No [url=/tag/7/][/url]
Color range                 : Limited [url=/tag/7/][/url]
Color primaries             : BT.709 [url=/tag/7/][/url]
Transfer characteristics    : BT.709 [url=/tag/7/][/url]
Matrix coefficients         : BT.709 [url=/tag/7/][/url]
[url=/tag/7/][/url]
Audio #1 [url=/tag/7/][/url]
ID                          : 2 [url=/tag/7/][/url]
Format                      : DTS [url=/tag/7/][/url]
Format/Info                 : Digital Theater Systems [url=/tag/7/][/url]
Codec ID                    : A_DTS [url=/tag/7/][/url]
Duration                    : 1 h 48 min [url=/tag/7/][/url]
Bit rate mode               : Constant [url=/tag/7/][/url]
Bit rate                    : 768 kb/s [url=/tag/7/][/url]
Channel(s)                  : 6 channels [url=/tag/7/][/url]
Channel positions           : Front: L C R, Side: L R, LFE [url=/tag/7/][/url]
Sampling rate               : 48.0 kHz [url=/tag/7/][/url]
Frame rate                  : 93.750 FPS (512 SPF) [url=/tag/7/][/url]
Bit depth                   : 24 bits [url=/tag/7/][/url]
Compression mode            : Lossy [url=/tag/7/][/url]
Stream size                 : 594 MiB (10%) [url=/tag/7/][/url]
Title                       : | Дублированный | [url=/tag/7/][/url]
Language                    : Russian [url=/tag/7/][/url]
Default                     : Yes [url=/tag/7/][/url]
Forced                      : No [url=/tag/7/][/url]
[url=/tag/7/][/url]
Audio #2 [url=/tag/7/][/url]
ID                          : 3 [url=/tag/7/][/url]
Format                      : AC-3 [url=/tag/7/][/url]
Format/Info                 : Audio Coding 3 [url=/tag/7/][/url]
Codec ID                    : A_AC3 [url=/tag/7/][/url]
Duration                    : 1 h 48 min [url=/tag/7/][/url]
Bit rate mode               : Constant [url=/tag/7/][/url]
Bit rate                    : 448 kb/s [url=/tag/7/][/url]
Channel(s)                  : 6 channels [url=/tag/7/][/url]
Channel positions           : Front: L C R, Side: L R, LFE [url=/tag/7/][/url]
Sampling rate               : 48.0 kHz [url=/tag/7/][/url]
Frame rate                  : 31.250 FPS (1536 SPF) [url=/tag/7/][/url]
Bit depth                   : 16 bits [url=/tag/7/][/url]
Compression mode            : Lossy [url=/tag/7/][/url]
Stream size                 : 347 MiB (6%) [url=/tag/7/][/url]
Title                       : | Дублированный | [url=/tag/7/][/url]
Language                    : Ukrainian [url=/tag/7/][/url]
Service kind                : Complete Main [url=/tag/7/][/url]
Default                     : No [url=/tag/7/][/url]
Forced                      : No [url=/tag/7/][/url]
[url=/tag/7/][/url]
Audio #3 [url=/tag/7/][/url]
ID                          : 4 [url=/tag/7/][/url]
Format                      : AC-3 [url=/tag/7/][/url]
Format/Info                 : Audio Coding 3 [url=/tag/7/][/url]
Codec ID                    : A_AC3 [url=/tag/7/][/url]
Duration                    : 1 h 48 min [url=/tag/7/][/url]
Bit rate mode               : Constant [url=/tag/7/][/url]
Bit rate                    : 640 kb/s [url=/tag/7/][/url]
Channel(s)                  : 6 channels [url=/tag/7/][/url]
Channel positions           : Front: L C R, Side: L R, LFE [url=/tag/7/][/url]
Sampling rate               : 48.0 kHz [url=/tag/7/][/url]
Frame rate                  : 31.250 FPS (1536 SPF) [url=/tag/7/][/url]
Bit depth                   : 16 bits [url=/tag/7/][/url]
Compression mode            : Lossy [url=/tag/7/][/url]
Delay relative to video     : 32 ms [url=/tag/7/][/url]
Stream size                 : 495 MiB (8%) [url=/tag/7/][/url]
Title                       : | Original | [url=/tag/7/][/url]
Language                    : English [url=/tag/7/][/url]
Service kind                : Complete Main [url=/tag/7/][/url]
Default                     : No [url=/tag/7/][/url]
Forced                      : No [url=/tag/7/][/url]
[url=/tag/7/][/url]
Text #1 [url=/tag/7/][/url]
ID                          : 5 [url=/tag/7/][/url]
Format                      : UTF-8 [url=/tag/7/][/url]
Codec ID                    : S_TEXT/UTF8 [url=/tag/7/][/url]
Codec ID/Info               : UTF-8 Plain Text [url=/tag/7/][/url]
Duration                    : 1 h 46 min [url=/tag/7/][/url]
Bit rate                    : 53 b/s [url=/tag/7/][/url]
Count of elements           : 1147 [url=/tag/7/][/url]
Stream size                 : 41.6 KiB (0%) [url=/tag/7/][/url]
Title                       : Full [url=/tag/7/][/url]
Language                    : Russian [url=/tag/7/][/url]
Default                     : No [url=/tag/7/][/url]
Forced                      : No [url=/tag/7/][/url]
[url=/tag/7/][/url]
Text #2 [url=/tag/7/][/url]
ID                          : 6 [url=/tag/7/][/url]
Format                      : UTF-8 [url=/tag/7/][/url]
Codec ID                    : S_TEXT/UTF8 [url=/tag/7/][/url]
Codec ID/Info               : UTF-8 Plain Text [url=/tag/7/][/url]
Duration                    : 1 h 46 min [url=/tag/7/][/url]
Bit rate                    : 70 b/s [url=/tag/7/][/url]
Count of elements           : 1152 [url=/tag/7/][/url]
Stream size                 : 54.8 KiB (0%) [url=/tag/7/][/url]
Title                       : Full [url=/tag/7/][/url]
Language                    : Ukrainian [url=/tag/7/][/url]
Default                     : No [url=/tag/7/][/url]
Forced                      : No [url=/tag/7/][/url]
[url=/tag/7/][/url]
Text #3 [url=/tag/7/][/url]
ID                          : 7 [url=/tag/7/][/url]
Format                      : UTF-8 [url=/tag/7/][/url]
Codec ID                    : S_TEXT/UTF8 [url=/tag/7/][/url]
Codec ID/Info               : UTF-8 Plain Text [url=/tag/7/][/url]
Duration                    : 1 h 35 min [url=/tag/7/][/url]
Bit rate                    : 45 b/s [url=/tag/7/][/url]
Count of elements           : 1237 [url=/tag/7/][/url]
Stream size                 : 32.1 KiB (0%) [url=/tag/7/][/url]
Title                       : Full [url=/tag/7/][/url]
Language                    : English [url=/tag/7/][/url]
Default                     : No [url=/tag/7/][/url]
Forced                      : No [url=/tag/7/][/url]
[url=/tag/7/][/url]
Text #4 [url=/tag/7/][/url]
ID                          : 8 [url=/tag/7/][/url]
Format                      : UTF-8 [url=/tag/7/][/url]
Codec ID                    : S_TEXT/UTF8 [url=/tag/7/][/url]
Codec ID/Info               : UTF-8 Plain Text [url=/tag/7/][/url]
Duration                    : 1 h 43 min [url=/tag/7/][/url]
Bit rate                    : 58 b/s [url=/tag/7/][/url]
Count of elements           : 1812 [url=/tag/7/][/url]
Stream size                 : 43.9 KiB (0%) [url=/tag/7/][/url]
Title                       : SDH [url=/tag/7/][/url]
Language                    : English [url=/tag/7/][/url]
Default                     : No [url=/tag/7/][/url]
Forced                      : No [url=/tag/7/][/url]
[url=/tag/7/][/url]
Text #5 [url=/tag/7/][/url]
ID                          : 9 [url=/tag/7/][/url]
Format                      : PGS [url=/tag/7/][/url]
Muxing mode                 : zlib [url=/tag/7/][/url]
Codec ID                    : S_HDMV/PGS [url=/tag/7/][/url]
Codec ID/Info               : Picture based subtitle format used on BDs/HD-DVDs [url=/tag/7/][/url]
Duration                    : 1 h 46 min [url=/tag/7/][/url]
Bit rate                    : 24.7 kb/s [url=/tag/7/][/url]
Count of elements           : 2310 [url=/tag/7/][/url]
Stream size                 : 18.8 MiB (0%) [url=/tag/7/][/url]
Title                       : Full [url=/tag/7/][/url]
Language                    : Russian [url=/tag/7/][/url]
Default                     : No [url=/tag/7/][/url]
Forced                      : No [url=/tag/7/][/url]
[url=/tag/7/][/url]
Text #6 [url=/tag/7/][/url]
ID                          : 10 [url=/tag/7/][/url]
Format                      : PGS [url=/tag/7/][/url]
Muxing mode                 : zlib [url=/tag/7/][/url]
Codec ID                    : S_HDMV/PGS [url=/tag/7/][/url]
Codec ID/Info               : Picture based subtitle format used on BDs/HD-DVDs [url=/tag/7/][/url]
Duration                    : 1 h 46 min [url=/tag/7/][/url]
Bit rate                    : 26.3 kb/s [url=/tag/7/][/url]
Count of elements           : 2304 [url=/tag/7/][/url]
Stream size                 : 20.1 MiB (0%) [url=/tag/7/][/url]
Title                       : Full [url=/tag/7/][/url]
Language                    : Ukrainian [url=/tag/7/][/url]
Default                     : No [url=/tag/7/][/url]
Forced                      : No [url=/tag/7/][/url]
[url=/tag/7/][/url]
Text #7 [url=/tag/7/][/url]
ID                          : 11 [url=/tag/7/][/url]
Format                      : PGS [url=/tag/7/][/url]
Muxing mode                 : zlib [url=/tag/7/][/url]
Codec ID                    : S_HDMV/PGS [url=/tag/7/][/url]
Codec ID/Info               : Picture based subtitle format used on BDs/HD-DVDs [url=/tag/7/][/url]
Duration                    : 1 h 43 min [url=/tag/7/][/url]
Bit rate                    : 40.2 kb/s [url=/tag/7/][/url]
Count of elements           : 3660 [url=/tag/7/][/url]
Stream size                 : 29.6 MiB (0%) [url=/tag/7/][/url]
Title                       : SDH [url=/tag/7/][/url]
Language                    : English [url=/tag/7/][/url]
Default                     : No [url=/tag/7/][/url]
Forced                      : No [url=/tag/7/][/url]
[url=/tag/7/][/url]
Menu [url=/tag/7/][/url]
00:00:00.000                : en:Chapter 1 [url=/tag/7/][/url]
00:03:37.800                : en:Chapter 2 [url=/tag/7/][/url]
00:08:10.281                : en:Chapter 3 [url=/tag/7/][/url]
00:11:51.460                : en:Chapter 4 [url=/tag/7/][/url]
00:16:23.524                : en:Chapter 5 [url=/tag/7/][/url]
00:24:14.870                : en:Chapter 6 [url=/tag/7/][/url]
00:28:30.458                : en:Chapter 7 [url=/tag/7/][/url]
00:34:03.124                : en:Chapter 8 [url=/tag/7/][/url]
00:37:53.187                : en:Chapter 9 [url=/tag/7/][/url]
00:40:54.160                : en:Chapter 10 [url=/tag/7/][/url]
00:44:55.359                : en:Chapter 11 [url=/tag/7/][/url]
00:49:15.994                : en:Chapter 12 [url=/tag/7/][/url]
00:53:27.245                : en:Chapter 13 [url=/tag/7/][/url]
00:59:40.952                : en:Chapter 14 [url=/tag/7/][/url]
01:03:20.671                : en:Chapter 15 [url=/tag/7/][/url]
01:06:23.270                : en:Chapter 16 [url=/tag/7/][/url]
01:09:19.822                : en:Chapter 17 [url=/tag/7/][/url]
01:12:18.917                : en:Chapter 18 [url=/tag/7/][/url]
01:17:33.940                : en:Chapter 19 [url=/tag/7/][/url]
01:20:55.058                : en:Chapter 20 [url=/tag/7/][/url]
01:25:33.837                : en:Chapter 21 [url=/tag/7/][/url]
01:30:38.391                : en:Chapter 22 [url=/tag/7/][/url]
01:36:01.839                : en:Chapter 23 [url=/tag/7/][/url]
01:38:01.166                : en:Chapter 24 [url=/tag/7/][/url]



Скриншоты:
[+] Всего файлов в раздаче - 1:
Ferdinand.(2017).BDRip.1080p.FullHD.60FPS.HEVC.[Cryptor].mkv5.82 GB

Текущая раздача:
ДатаКомментарии    РазмерПиры
2018-04-08 U Фердинанд / Ferdinand (2017) BDRip-HEVC 1080p | 60 fps | Лицензия 5.82 GB ↑ 50 ↓ 29

Показать еще раздачи по запросу фердинанд:
2018-03-21 U Фердинанд / Ferdinand (2017) BDRip 1080p от Heisenberg & NNMClub | Лицензия 4.37 GB ↑ 80 ↓ 32
2018-03-20 U Фердинанд / Ferdinand (2017) BDRip 720p от Scarabey | Лицензия 3.76 GB ↑ 127 ↓ 25
2018-03-19 U Фердинанд / Ferdinand (2017) BDRip от ExKinoRay | Лицензия 2.18 GB ↑ 107 ↓ 27
2018-03-18 U Фердинанд / Ferdinand (2017) HDRip от Scarabey | Лицензия 745.36 MB ↑ 139 ↓ 27
2018-03-18 U Фердинанд / Ferdinand (2017) HDRip от Scarabey | Лицензия 1.45 GB ↑ 95 ↓ 39
2018-03-17 U Фердинанд / Ferdinand (2017) BDRip-HEVC 1080p от M@kSIMus 4.31 GB ↑ 67 ↓ 29
2018-03-17 U Фердинанд / Ferdinand (2017) BDRip от ExKinoRay | Лицензия 1.46 GB ↑ 271 ↓ 94

Отзывы
Зарегистрируйтесь чтобы добавить комментарий.
Обратная связь
Copyleft ©