↑↓Torrent.by
Поиск
Логин: Регистрация
Пароль: Восстановить пароль
Загрузка...

История призрака / A Ghost Story (2017) BDRip 720p | iTunes

Скачать istoriya-prizraka-a-ghost-story-2017-bdrip-720p-itunes.torrent
U Магнитная ссылка Размер: 4.20 GB Раздают: 78 Качают: 73 Добавлен: 2018-04-09 15:33:01
История призрака / A Ghost Story (2017) BDRip 720p | iTunes

Название: История призрака
Оригинальное название: A Ghost Story
Год выхода: 2017
Жанр: Фэнтези, драма, мелодрама
Выпущено: США
Перевод: Дублированный | iTunes
Продолжительность: 01:32:07
Режиссер: Дэвид Лоури
В ролях: Кейси Аффлек, Руни Мара, МакКольм Сепас мл., Кеннейша Томпсон, Гроувер Колсон,Лизбет Карденас, Барлоу Джейкобс, Richard Krause, Дэггер Салазар, Соня Асеведо и др.

О фильме: История о безвременно умершем мужчине, который не ушел в мир иной, а остался привязан к своему бывшему дому до скончания веков.

Файл
Качество: BDRip 720p
Видео: MPEG-4 AVC, 960x720, 5500 kbps, 23,976 fps
Звук#1: Русский, AC3, 6 ch, 48 kHz, 384 kbps
Звук#2: Английский, AC3, 6 ch, 48 kHz, 640 kbps
Субтитры: Русские, английские
[+] MI
Общее
Уникальный идентификатор                 : 205021440636946101649671186290497073284 (0x9A3DB174025D46DB9124E4918AD4B084)
Полное имя                               : H:Deluge торрентыA Ghost StoryBDRip720.mkv
Формат                                   : Matroska
Версия формата                           : Version 4 / Version 2
Размер файла                             : 4,20 Гбайт
Продолжительность                        : 1 ч. 32 м.
Общий поток                              : 6523 Кбит/сек
Дата кодирования                         : UTC 2018-04-09 09:14:32
Программа кодирования                    : mkvmerge v9.5.0 ('Quiet Fire') 64bit
Библиотека кодирования                   : libebml v1.3.4 + libmatroska v1.4.5
Обложка                                  : Yes
Attachments                              : cover_land.jpg / small_cover.jpg / small_cover_land.jpg / cover.jpg

Видео
Идентификатор                            : 1
Формат                                   : AVC
Формат/Информация                        : Advanced Video Codec
Профиль формата                          : High@L4.1
Настройки формата                        : CABAC / 8 Ref Frames
Параметр CABAC формата                   : Да
Параметр RefFrames формата               : 8 кадров
Идентификатор кодека                     : V_MPEG4/ISO/AVC
Продолжительность                        : 1 ч. 32 м.
Битрейт                                  : 5500 Кбит/сек
Ширина                                   : 960 пикселей
Высота                                   : 720 пикселей
Соотношение сторон                       : 4:3
Режим частоты кадров                     : Постоянный
Частота кадров                           : 23,976 (24000/1001) кадра/сек
Цветовое пространство                    : YUV
Субдискретизация насыщенности            : 4:2:0
Битовая глубина                          : 8 бит
Тип развёртки                            : Прогрессивная
Бит/(Пиксели*Кадры)                      : 0.332
Размер потока                            : 3,54 Гбайт (84%)
Библиотека кодирования                   : x264 core 142 r2479 dd79a61
Настройки программы                      : cabac=1 / ref=9 / deblock=1:-1:-1 / analyse=0x3:0x133 / me=umh / subme=11 / psy=1 / psy_rd=1.00:0.00 / mixed_ref=1 / me_range=32 / chroma_me=1 / trellis=2 / 8x8dct=1 / cqm=0 / deadzone=21,11 / fast_pskip=1 / chroma_qp_offset=-2 / threads=6 / lookahead_threads=1 / sliced_threads=0 / nr=0 / decimate=1 / interlaced=0 / bluray_compat=0 / constrained_intra=0 / bframes=10 / b_pyramid=1 / b_adapt=2 / b_bias=0 / direct=3 / weightb=1 / open_gop=0 / weightp=0 / keyint=240 / keyint_min=24 / scenecut=40 / intra_refresh=0 / rc_lookahead=50 / rc=2pass / mbtree=1 / bitrate=5500 / ratetol=1.0 / qcomp=0.60 / qpmin=0 / qpmax=69 / qpstep=4 / cplxblur=20.0 / qblur=0.5 / vbv_maxrate=62500 / vbv_bufsize=78125 / nal_hrd=none / filler=0 / ip_ratio=1.40 / aq=1:1.00
Default                                  : Да
Forced                                   : Нет
Цветовой диапазон                        : Limited
Основные цвета                           : BT.709
Характеристики трансфера                 : BT.709
Коэффициенты матрицы                     : BT.709

Аудио #1
Идентификатор                            : 2
Формат                                   : AC-3
Формат/Информация                        : Audio Coding 3
Идентификатор кодека                     : A_AC3
Продолжительность                        : 1 ч. 32 м.
Вид битрейта                             : Постоянный
Битрейт                                  : 384 Кбит/сек
Каналы                                   : 6 каналов
Расположение каналов                     : Front: L C R, Side: L R, LFE
Частота                                  : 48,0 КГц
Частота кадров                           : 31,250 кадров/сек (1536 SPF)
Битовая глубина                          : 16 бит
Метод сжатия                             : С потерями
Размер потока                            : 253 Мбайт (6%)
Язык                                     : Russian
Default                                  : Нет
Forced                                   : Нет

Аудио #2
Идентификатор                            : 3
Формат                                   : AC-3
Формат/Информация                        : Audio Coding 3
Идентификатор кодека                     : A_AC3
Продолжительность                        : 1 ч. 32 м.
Вид битрейта                             : Постоянный
Битрейт                                  : 640 Кбит/сек
Каналы                                   : 6 каналов
Расположение каналов                     : Front: L C R, Side: L R, LFE
Частота                                  : 48,0 КГц
Частота кадров                           : 31,250 кадров/сек (1536 SPF)
Битовая глубина                          : 16 бит
Метод сжатия                             : С потерями
Размер потока                            : 422 Мбайт (10%)
Язык                                     : English
Default                                  : Да
Forced                                   : Нет

Текст #1
Идентификатор                            : 4
Формат                                   : UTF-8
Идентификатор кодека                     : S_TEXT/UTF8
Идентификатор кодека/Информация          : UTF-8 Plain Text
Продолжительность                        : 1 ч. 27 м.
Битрейт                                  : 21 бит/сек
ElementCount                             : 332
Размер потока                            : 13,8 Кбайт (0%)
Язык                                     : Russian
Default                                  : Нет
Forced                                   : Нет

Текст #2
Идентификатор                            : 5
Формат                                   : UTF-8
Идентификатор кодека                     : S_TEXT/UTF8
Идентификатор кодека/Информация          : UTF-8 Plain Text
Продолжительность                        : 1 ч. 27 м.
Битрейт                                  : 22 бит/сек
ElementCount                             : 534
Размер потока                            : 14,7 Кбайт (0%)
Язык                                     : English
Default                                  : Да
Forced                                   : Нет

Меню
00:00:00.000                             : en:Chapter 01
00:06:12.622                             : en:Chapter 02
00:11:27.103                             : en:Chapter 03
00:16:09.802                             : en:Chapter 04
00:22:37.397                             : en:Chapter 05
00:26:38.221                             : en:Chapter 06
00:33:45.982                             : en:Chapter 07
00:38:27.013                             : en:Chapter 08
00:43:49.668                             : en:Chapter 09
00:49:56.702                             : en:Chapter 10
00:56:13.870                             : en:Chapter 11
01:04:44.630                             : en:Chapter 12
01:08:55.840                             : en:Chapter 13
01:11:44.717                             : en:Chapter 14
01:18:37.963                             : en:Chapter 15
01:23:09.567                             : en:Chapter 16




Скриншоты:
[+] Всего файлов в раздаче - 1:
A Ghost StoryBDRip720.mkv4.20 GB

Текущая раздача:
ДатаКомментарии    РазмерПиры
2018-04-09 U История призрака / A Ghost Story (2017) BDRip 720p | iTunes 4.20 GB ↑ 78 ↓ 73

Показать еще раздачи по запросу история:
2018-04-19 U Серия книг - «Фантастическая История» [129 книг] (2010-2018) FB2 184.35 MB ↑ 52 ↓ 25
2018-04-10 U История призрака / A Ghost Story (2017) HDRip от MegaPeer | iTunes 744.91 MB ↑ 48 ↓ 23
2018-04-09 U История призрака / A Ghost Story (2017) BDRemux 1080p от ExKinoRay | iTunes 15.25 GB ↑ 44 ↓ 38
2018-04-09 U История призрака / A Ghost Story (2017) HDRip от ExKinoRay | iTunes 1.51 GB ↑ 41 ↓ 33
2018-04-09 U История призрака / A Ghost Story (2017) BDRip-AVC от OlLanDGroup | iTunes 1К1.88 GB ↑ 77 ↓ 45
2018-04-09 U История призрака / A Ghost Story (2017) BDRip 1080p от ExKinoRay | iTunes 8.98 GB ↑ 106 ↓ 149
2018-04-09 U История призрака / A Ghost Story (2017) BDRip от MegaPeer | iTunes 1.42 GB ↑ 162 ↓ 96

Отзывы
Зарегистрируйтесь чтобы добавить комментарий.
Обратная связь
Copyleft ©