↑↓Torrent.by
Поиск
Логин: Регистрация
Пароль: Восстановить пароль
Загрузка...

Недруги / Hostiles (2017) WEB-DL 1080p от ExKinoRay | iTunes

Скачать nedrugi-hostiles-2017-web-dl-1080p-ot-exkinoray-itunes.torrent
U Магнитная ссылка Размер: 4.40 GB Раздают: 639 Качают: 368 Добавлен: 2018-04-10 07:18:20
Недруги / Hostiles (2017) WEB-DL 1080p от ExKinoRay | iTunes

Название: Недруги
Оригинальное название: Hostiles
Год выхода: 2017
Жанр: Драма, приключения, вестерн
Режиссер: Скотт Купер
В ролях: Кристиан Бэйл, Розамунд Пайк, Уэс Стьюди, Рори Кокрейн, Джесси Племонс, Джонатан Мэйджерс, Бен Фостер, Адам Бич, К`Орианка Килчер, Тимоти Шаламе, Скотт Шеперд, Ава Купер, Стелла Купер, Дэвид Мидфандер, Стэффорд Дуглас, Стивен Лэнг, Билл Кэмп

О фильме:
Когда на твоих глазах льется кровь, когда ты вынужден убивать, ты превращаешься в зверя… После долгих лет войны он дышал злобой, проклинал краснокожих, в каждом из них он видел врага. На исходе войны капитан Блокер получает приказ доставить на родину в Монтану умирающего вождя по кличке Желтый Ястреб. В цепях и кандалах он ведет семью индейцев через земли, где обитают враждебные племена и скрываются беглые преступники, где за каждым камнем поджидает смертельная опасность. Где-то на пути к отряду Блокера пристает обезумевшая от горя вдова, на глазах которой команчи убили ее детей. Эта встреча меняет всё…

Страна: США,
Студия: Grisbi Productions, Le, Waypoint Entertainment
Продолжительность: 02:07:58
Перевод: Дублированный | iTunes

Качество: WEB-DL 1080p
Видео: MPEG-4 AVC, 1920x804, 4539 Kbit/s, 25.000 fps
Звук:
Аудио: 48 kHz, AC3, 5.1, 384 Kbps | iTunes | RUS |
Субтитры: Русские (forced)

Релиз: Автор релиза:


[+] MI
General
Unique ID                   : 11488352723444707730573866078148358618 (0x8A49385433C3CB180DCC8E7F3B5F1DA)
Complete name               : C:Video111Hostiles.2017.WEB-DL.1080p.ExKinoRay.mkv
Format                      : Matroska
Format version              : Version 4 / Version 2
File size                   : 4.40 GiB
Duration                    : 2 h 7 min
Overall bit rate            : 4 925 kb/s
Movie name                  : Hostiles 2017 from ExKinoRay
Encoded date                : UTC 2018-04-09 18:18:52
Writing application         : mkvmerge v22.0.0 ('At The End Of The World') 64-bit
Writing library             : libebml v1.3.5 + libmatroska v1.4.8

Video
ID                          : 1
Format                      : AVC
Format/Info                 : Advanced Video Codec
Format profile              : High@L4
Format settings             : CABAC / 5 Ref Frames
Format settings, CABAC      : Yes
Format settings, ReFrames   : 5 frames
Codec ID                    : V_MPEG4/ISO/AVC
Duration                    : 2 h 7 min
Bit rate                    : 4 539 kb/s
Width                       : 1 920 pixels
Height                      : 804 pixels
Display aspect ratio        : 2.40:1
Frame rate mode             : Constant
Frame rate                  : 25.000 FPS
Color space                 : YUV
Chroma subsampling          : 4:2:0
Bit depth                   : 8 bits
Scan type                   : Progressive
Bits/(Pixel*Frame)          : 0.118
Stream size                 : 4.06 GiB (92%)
Language                    : English
Default                     : Yes
Forced                      : No
Color range                 : Limited
Color primaries             : BT.709
Transfer characteristics    : BT.709
Matrix coefficients         : BT.709

Audio
ID                          : 2
Format                      : AC-3
Format/Info                 : Audio Coding 3
Codec ID                    : A_AC3
Duration                    : 2 h 7 min
Bit rate mode               : Constant
Bit rate                    : 384 kb/s
Channel(s)                  : 6 channels
Channel positions           : Front: L C R, Side: L R, LFE
Sampling rate               : 48.0 kHz
Frame rate                  : 31.250 FPS (1536 SPF)
Bit depth                   : 16 bits
Compression mode            : Lossy
Delay relative to video     : -40 ms
Stream size                 : 351 MiB (8%)
Title                       : iTunes
Language                    : Russian
Service kind                : Complete Main
Default                     : Yes
Forced                      : Yes

Text
ID                          : 3
Format                      : UTF-8
Codec ID                    : S_TEXT/UTF8
Codec ID/Info               : UTF-8 Plain Text
Duration                    : 1 h 33 min
Bit rate                    : 5 b/s
Count of elements           : 84
Stream size                 : 3.73 KiB (0%)
Title                       : Forced
Language                    : Russian
Default                     : Yes
Forced                      : Yes

Menu
00:00:00.000                : en:Глава 1
00:07:15.720                : en:Глава 2
00:15:09.880                : en:Глава 3
00:23:15.400                : en:Глава 4
00:32:19.160                : en:Глава 5
00:41:12.960                : en:Глава 6
00:48:58.199                : en:Глава 7
00:56:52.199                : en:Глава 8
01:04:56.559                : en:Глава 9
01:14:46.039                : en:Глава 10
01:24:27.599                : en:Глава 11
01:32:39.359                : en:Глава 12
01:40:17.438                : en:Глава 13
01:48:57.278                : en:Глава 14
01:56:22.278                : en:Глава 15



Скриншоты:
[+] Всего файлов в раздаче - 1:
Hostiles.2017.WEB-DL.1080p.ExKinoRay.mkv4.40 GB

Текущая раздача:
ДатаКомментарии    РазмерПиры
2018-04-10 U Недруги / Hostiles (2017) WEB-DL 1080p от ExKinoRay | iTunes 4.40 GB ↑ 639 ↓ 368

Показать еще раздачи по запросу недруги:
2018-04-21 U Недруги / Hostiles (2017) HDRip от Scarabey | iTunes 796.19 MB ↑ 50 ↓ 12
2018-04-20 U Недруги / Hostiles (2017) HDRip от Scarabey | iTunes 1.45 GB ↑ 2929 ↓ 236
2018-04-19 U Недруги / Hostiles (2017) BDRip 1080p от ExKinoRay | iTunes 17.92 GB ↑ 77 ↓ 38
2018-04-18 U Недруги / Hostiles (2017) BDRip 720p от ExKinoRay | iTunes 6.93 GB ↑ 79 ↓ 46
2018-04-17 U Недруги / Hostiles (2017) HDRip | iTunes 2.18 GB ↑ 81 ↓ 66
2018-04-11 U Недруги / Hostiles (2017) WEB-DLRip-AVC от ExKinoRay | iTunes 745.56 MB ↑ 77 ↓ 23
2018-04-11 U Недруги / Hostiles (2017) WEB-DLRip от Scarabey | iTunes 2.17 GB ↑ 97 ↓ 43

Отзывы
Зарегистрируйтесь чтобы добавить комментарий.
Обратная связь
Copyleft ©