↑↓Torrent.by
Поиск
Логин: Регистрация
Пароль: Восстановить пароль
Загрузка...

Недруги / Hostiles (2017) WEB-DLRip-AVC от OlLanDGroup | iTunes

Скачать nedrugi-hostiles-2017-web-dlrip-avc-ot-ollandgroup-itunes.torrent
U Магнитная ссылка Размер: 1.46 GB Раздают: 164 Качают: 73 Добавлен: 2018-04-10 15:33:20
Недруги / Hostiles (2017) WEB-DLRip-AVC от OlLanDGroup | iTunes

Недруги / Hostiles
«We are all hostiles»

Год выпуска: 2017
Страна: США
Производство: Grisbi Productions, Le, Waypoint Entertainment
Жанр:  Драма, приключения, вестерн

Режиссёр: Скотт Купер
В ролях: Кристиан Бэйл, Розамунд Пайк, Уэс Стьюди, Рори Кокрейн, Джесси Племонс, Джонатан Мэйджерс, Бен Фостер, Адам Бич, К`Орианка Килчер, Тимоти Шаламе, Скотт Шеперд, Ава Купер, Стелла Купер, Дэвид Мидфандер, Стэффорд Дуглас, Стивен Лэнг, Билл Кэмп

Перевод: Дублированный | iTunes
Субтитры: Русские (форс.)
Реклама: Отсутствует

Описание: Когда на твоих глазах льется кровь, когда ты вынужден убивать, ты превращаешься в зверя... После долгих лет войны он дышал злобой, проклинал краснокожих, в каждом из них он видел врага. На исходе войны капитан Блокер получает приказ доставить на родину в Монтану умирающего вождя по кличке Желтый Ястреб. В цепях и кандалах он ведет семью индейцев через земли, где обитают враждебные племена и скрываются беглые преступники, где за каждым камнем поджидает смертельная опасность. Где-то на пути к отряду Блокера пристает обезумевшая от горя вдова, на глазах которой команчи убили ее детей. Эта встреча меняет всё...

Качество: WEB-DLRip-AVC
Продолжительность: 02:07:58

Формат: MKV
Видео кодек: MPEG-4 AVC
Аудио кодек: AC3
Видео: 1024x428 (2.40:1), 24,000 fps, x264 ~1 248 kbps avg, 0.114 bit/pixel
Аудио: 48 kHz, AC3 Dolby Digital, 3/2 (L,C,R,l,r) + LFE ch, ~384.00 kbps avg | RUS (iTunes)

Дата премьеры (мир): 2 сентября 2017
Дата премьеры (РФ): 15 февраля 2018, «Парадиз»

Релиз: Rip by:


[+] MediaInfo

Общее
Уникальный идентификатор                 : 202938621861111220010785468773773659524 (0x98AC8E8F216D3B6EB5B163225D58CD84)
Полное имя                               : E:OlLanDGroupHostiles.2017.WEB-DLRip(AVC).OlLanDGroup.mkv
Формат                                   : Matroska
Версия формата                           : Version 2
Размер файла                             : 1,46 Гбайт
Продолжительность                        : 2 ч. 7 м.
Общий поток                              : 1632 Кбит/сек
Название фильма                          : Hostiles.2017   #TorpedoUK#
Дата кодирования                         : UTC 2018-04-10 09:28:54
Программа кодирования                    : mkvmerge v7.8.0 ('River Man') 32bit built on Apr  3 2015 12:11:22
Библиотека кодирования                   : libebml v1.3.1 + libmatroska v1.4.2

Видео
Идентификатор                            : 1
Формат                                   : AVC
Формат/Информация                        : Advanced Video Codec
Профиль формата                          : High@L4.1
Параметр CABAC формата                   : Да
Параметр ReFrames формата                : 10 кадров
Идентификатор кодека                     : V_MPEG4/ISO/AVC
Продолжительность                        : 2 ч. 7 м.
Битрейт                                  : 1248 Кбит/сек
Ширина                                   : 1024 пикселя
Высота                                   : 428 пикселей
Соотношение сторон                       : 2,40:1
Режим частоты кадров                     : Постоянный
Частота кадров                           : 25,000 кадров/сек
Цветовое пространство                    : YUV
Субдискретизация насыщенности            : 4:2:0
Битовая глубина                          : 8 бит
Тип развёртки                            : Прогрессивная
Бит/(Пиксели*Кадры)                      : 0.114
Размер потока                            : 1,09 Гбайт (74%)
Библиотека кодирования                   : x264 core 146 r2538 121396c
Настройки программы                      : cabac=1 / ref=10 / deblock=1:-2:-3 / analyse=0x3:0x133 / me=umh / subme=11 / psy=1 / psy_rd=0.95:0.08 / mixed_ref=1 / me_range=48 / chroma_me=1 / trellis=2 / 8x8dct=1 / cqm=0 / deadzone=21,11 / fast_pskip=1 / chroma_qp_offset=-3 / threads=6 / lookahead_threads=1 / sliced_threads=0 / nr=0 / decimate=1 / interlaced=0 / bluray_compat=0 / constrained_intra=0 / bframes=10 / b_pyramid=2 / b_adapt=2 / b_bias=0 / direct=3 / weightb=1 / open_gop=0 / weightp=2 / keyint=250 / keyint_min=25 / scenecut=40 / intra_refresh=0 / rc_lookahead=40 / rc=2pass / mbtree=0 / bitrate=1248 / ratetol=1.0 / qcomp=0.60 / qpmin=0 / qpmax=69 / qpstep=4 / cplxblur=20.0 / qblur=0.5 / vbv_maxrate=50000 / vbv_bufsize=62500 / nal_hrd=none / filler=0 / ip_ratio=1.40 / pb_ratio=1.30 / aq=1:1.00
Default                                  : Да
Forced                                   : Нет

Аудио
Идентификатор                            : 2
Формат                                   : AC-3
Формат/Информация                        : Audio Coding 3
Расширение режима                        : CM (complete main)
Параметр Endianness формата              : Big
Идентификатор кодека                     : A_AC3
Продолжительность                        : 2 ч. 7 м.
Вид битрейта                             : Постоянный
Битрейт                                  : 384 Кбит/сек
Каналы                                   : 6 каналов
Расположение каналов                     : Front: L C R, Side: L R, LFE
Частота                                  : 48,0 КГц
Частота кадров                           : 31,250 кадров/сек (1536 spf)
Битовая глубина                          : 16 бит
Метод сжатия                             : С потерями
Размер потока                            : 351 Мбайт (24%)
Заголовок                                : iTunes
Язык                                     : Russian
Default                                  : Да
Forced                                   : Да

Текст
Идентификатор                            : 3
Формат                                   : UTF-8
Идентификатор кодека                     : S_TEXT/UTF8
Идентификатор кодека/Информация          : UTF-8 Plain Text
Заголовок                                : Forced
Язык                                     : Russian
Default                                  : Да
Forced                                   : Да

Меню
00:00:00.000                             : en:Глава 1
00:07:15.720                             : en:Глава 2
00:15:09.880                             : en:Глава 3
00:23:15.400                             : en:Глава 4
00:32:19.160                             : en:Глава 5
00:41:12.960                             : en:Глава 6
00:48:58.199                             : en:Глава 7
00:56:52.199                             : en:Глава 8
01:04:56.559                             : en:Глава 9
01:14:46.039                             : en:Глава 10
01:24:27.599                             : en:Глава 11
01:32:39.359                             : en:Глава 12
01:40:17.438                             : en:Глава 13
01:48:57.278                             : en:Глава 14
01:56:22.278                             : en:Глава 15




Скриншоты:
[+] Всего файлов в раздаче - 1:
Hostiles.2017.WEB-DLRip(AVC).OlLanDGroup.mkv1.46 GB

Текущая раздача:
ДатаКомментарии    РазмерПиры
2018-04-10 U Недруги / Hostiles (2017) WEB-DLRip-AVC от OlLanDGroup | iTunes 1.46 GB ↑ 164 ↓ 73

Показать еще раздачи по запросу недруги:
2018-04-21 U Недруги / Hostiles (2017) HDRip от Scarabey | iTunes 796.19 MB ↑ 103 ↓ 20
2018-04-20 U Недруги / Hostiles (2017) HDRip от Scarabey | iTunes 1.45 GB ↑ 3176 ↓ 260
2018-04-18 U Недруги / Hostiles (2017) BDRip 720p от ExKinoRay | iTunes 6.93 GB ↑ 117 ↓ 48
2018-04-11 U Недруги / Hostiles (2017) WEB-DLRip-AVC от ExKinoRay | iTunes 745.56 MB ↑ 389 ↓ 35
2018-04-10 U Недруги / Hostiles (2017) WEB-DLRip от MegaPeer | iTunes 1К2.18 GB ↑ 160 ↓ 59
2018-04-10 U Недруги / Hostiles (2017) WEB-DL 720p от ExKinoRay | iTunes 1К3.95 GB ↑ 315 ↓ 98
2018-04-10 U Недруги / Hostiles (2017) WEB-DLRip от MegaPeer | iTunes 1.46 GB ↑ 682 ↓ 204

Отзывы
Зарегистрируйтесь чтобы добавить комментарий.
Обратная связь
Copyleft ©