↑↓Torrent.by
Поиск
Логин: Регистрация
Пароль: Восстановить пароль
Загрузка...

Эйла / Ayla (2017) WEBRip 720p | L2

Скачать eyla-ayla-2017-webrip-720p-l2.torrent
U Магнитная ссылка Размер: 2.51 GB Раздают: 59 Качают: 20 Добавлен: 2018-04-11 07:24:47
Эйла / Ayla (2017) WEBRip 720p | L2

Название: Эйла
Оригинальное название: Ayla
Год выхода: 2017
Жанр: Ужасы, фэнтези, триллер, драма
Режиссер: Элиас
В ролях: Николас Уайлдер, Тристан Риск, Ди Уоллес-Стоун, Д Анджело Мидили, Билл Оберст мл., Эндрю Сенсениг, Дарлен Селлерс, Гари Ли Винсент и другие
О фильме:
Человек, которого преследует таинственная смерть 4-летней сестры, оживляет её тридцать лет спустя.

Страна: США, Clayface Pictures
Продолжительность: 01:27:04
Перевод: Любительский (двухголосый закадровый) | HiWay Grope

Файл
Кодек: MPEG-4 AVC/x.264
Качество: WEBRip 720p
Видео: 1280x636, 23.976 fps, ~3855 kbps, 0.197 bit/pixel
Звук:
Аудио rus: AC3, 48 kHz, 2 ch, 192 Kbps
Субтитры: отсутствуют

Реклама: присутствует

Семпл

Релиз от: HiWay Grope


[+] MediaInfo:

General
Unique ID                                : 316630475981822907670026156295338699154 (0xEE34CFBE7510FD54502B03A7AAE5A992)
Complete name                            : E:Ayla.2017.720p WEBRip.HiWayGropeAyla.2017.720p.WEBRip.HiWayGrope.mkv
Format                                   : Matroska
Format version                           : Version 4 / Version 2
File size                                : 2.51 GiB
Duration                                 : 1h 27mn
Overall bit rate                         : 4 129 Kbps
Encoded date                             : UTC 2018-04-10 10:36:17
Writing application                      : mkvmerge v21.0.0 ('Tardigrades Will Inherit The Earth') 64-bit
Writing library                          : libebml v1.3.5 + libmatroska v1.4.8

Video
ID                                       : 1
Format                                   : AVC
Format/Info                              : Advanced Video Codec
Format profile                           : Main@L4.1
Format settings, CABAC                   : Yes
Format settings, ReFrames                : 4 frames
Codec ID                                 : V_MPEG4/ISO/AVC
Duration                                 : 1h 27mn
Bit rate                                 : 3 855 Kbps
Width                                    : 1 280 pixels
Height                                   : 636 pixels
Display aspect ratio                     : 2.013
Frame rate mode                          : Constant
Frame rate                               : 23.976 (24000/1001) fps
Standard                                 : NTSC
Color space                              : YUV
Chroma subsampling                       : 4:2:0
Bit depth                                : 8 bits
Scan type                                : Progressive
Bits/(Pixel*Frame)                       : 0.197
Stream size                              : 2.34 GiB (93%)
Language                                 : English
Default                                  : Yes
Forced                                   : No
Color range                              : Limited
Color primaries                          : BT.709
Transfer characteristics                 : BT.709
Matrix coefficients                      : BT.709

Audio
ID                                       : 2
Format                                   : AC-3
Format/Info                              : Audio Coding 3
Mode extension                           : CM (complete main)
Format settings, Endianness              : Big
Codec ID                                 : A_AC3
Duration                                 : 1h 27mn
Bit rate mode                            : Constant
Bit rate                                 : 192 Kbps
Channel(s)                               : 2 channels
Channel positions                        : Front: L R
Sampling rate                            : 48.0 KHz
Frame rate                               : 31.250 fps (1536 spf)
Compression mode                         : Lossy
Stream size                              : 120 MiB (5%)
Title                                    : rus
Language                                 : Russian
Default                                  : Yes
Forced                                   : No




Скриншоты:
[+] Всего файлов в раздаче - 1:
Ayla.2017.720p.WEBRip.HiWayGrope.mkv2.51 GB

Отзывы
Зарегистрируйтесь чтобы добавить комментарий.
Обратная связь
Copyleft ©