↑↓Torrent.by
Поиск
Логин: Регистрация
Пароль: Восстановить пароль
Загрузка...

Недруги / Hostiles (2017) WEB-DL 1080p от MediaClub | iTunes

Скачать nedrugi-hostiles-2017-web-dl-1080p-ot-mediaclub-itunes.torrent
U Магнитная ссылка Размер: 7.97 GB Раздают: 50 Качают: 60 Добавлен: 2018-04-11 07:25:01
Недруги / Hostiles (2017) WEB-DL 1080p от MediaClub | iTunes

Название: Недруги
Оригинальное название: Hostiles
Год выхода: 2017
Жанр: Драма, приключения, вестерн
Режиссер: Скотт Купер
В ролях: Кристиан Бэйл, Розамунд Пайк, Уэс Стьюди, Рори Кокрейн, Джесси Племонс, Джонатан Мэйджерс, Бен Фостер, Адам Бич, К`Орианка Килчер, Тимоти Шаламе, Скотт Шеперд, Ава Купер, Стелла Купер, Дэвид Мидфандер, Стэффорд Дуглас, Стивен Лэнг, Билл Кэмп

О фильме:
Когда на твоих глазах льется кровь, когда ты вынужден убивать, ты превращаешься в зверя... После долгих лет войны он дышал злобой, проклинал краснокожих, в каждом из них он видел врага. На исходе войны капитан Блокер получает приказ доставить на родину в Монтану умирающего вождя по кличке Желтый Ястреб. В цепях и кандалах он ведет семью индейцев через земли, где обитают враждебные племена и скрываются беглые преступники, где за каждым камнем поджидает смертельная опасность. Где-то на пути к отряду Блокера пристает обезумевшая от горя вдова, на глазах которой команчи убили ее детей. Эта встреча меняет всё...

Страна: США
Студия: Grisbi Productions, Le, Waypoint Entertainment
Продолжительность: 02:14:15
Перевод: Дублированный

Файл
Кодек: h.264
Качество: WEB-DL 1080p
Видео: MPEG-4 AVC, 7925 Кбит/с, 1920x800, 23,976 кадр/с
Звук:
Русский (AC3, 6 ch, 384 Кбит/с) / Дублированный (iTunes)
Английский (E-AC3, 6 ch, 192 Кбит/с)
Субтитры: Русские (форсированные), английские (SDH)

Семпл

Релиз: | Silverok


[+] О релизе
Исходное видео с amazon
Русские субтитры подогнал,как и дубляж, под это видео



[+] MI
General
Unique ID                                : 284306070187519016897674294605920785565 (0xD5E35B7E35100F6326E2133AEA42D49D)
Complete name                            : D:uTorrentNedrugi.2017.WEB-DL.AMZN.1080p.MediaClub.mkv
Format                                   : Matroska
Format version                           : Version 4 / Version 2
File size                                : 7.97 GiB
Duration                                 : 2 h 14 min
Overall bit rate                         : 8 501 kb/s
Encoded date                             : UTC 2018-04-10 22:56:03
Writing application                      : mkvmerge v19.0.0 ('Brave Captain') 64-bit
Writing library                          : libebml v1.3.5 + libmatroska v1.4.8
Cover                                    : Yes
Attachments                              : cover.jpg

Video
ID                                       : 1
Format                                   : AVC
Format/Info                              : Advanced Video Codec
Format profile                           : High@L4
Format settings                          : CABAC / 4 Ref Frames
Format settings, CABAC                   : Yes
Format settings, RefFrames               : 4 frames
Codec ID                                 : V_MPEG4/ISO/AVC
Duration                                 : 2 h 14 min
Bit rate mode                            : Constant
Bit rate                                 : 7 925 kb/s
Nominal bit rate                         : 10 000 kb/s
Width                                    : 1 920 pixels
Height                                   : 800 pixels
Display aspect ratio                     : 2.40:1
Frame rate mode                          : Constant
Frame rate                               : 23.976 (24000/1001) FPS
Color space                              : YUV
Chroma subsampling                       : 4:2:0
Bit depth                                : 8 bits
Scan type                                : Progressive
Bits/(Pixel*Frame)                       : 0.215
Stream size                              : 7.43 GiB (93%)
Title                                    : WEB-DL.1080p.AMZN by Silverok
Default                                  : Yes
Forced                                   : No
Color range                              : Limited
Color primaries                          : BT.709
Transfer characteristics                 : BT.709
Matrix coefficients                      : BT.709

Audio #1
ID                                       : 2
Format                                   : AC-3
Format/Info                              : Audio Coding 3
Codec ID                                 : A_AC3
Duration                                 : 2 h 13 min
Bit rate mode                            : Constant
Bit rate                                 : 384 kb/s
Channel(s)                               : 6 channels
Channel positions                        : Front: L C R, Side: L R, LFE
Sampling rate                            : 48.0 kHz
Frame rate                               : 31.250 FPS (1536 SPF)
Bit depth                                : 16 bits
Compression mode                         : Lossy
Stream size                              : 366 MiB (4%)
Title                                    : Дублированный (iTunes)
Language                                 : Russian
Service kind                             : Complete Main
Default                                  : Yes
Forced                                   : No

Audio #2
ID                                       : 3
Format                                   : E-AC-3
Format/Info                              : Enhanced Audio Coding 3
Codec ID                                 : A_EAC3
Duration                                 : 2 h 14 min
Bit rate mode                            : Constant
Bit rate                                 : 192 kb/s
Channel(s)                               : 6 channels
Channel positions                        : Front: L C R, Side: L R, LFE
Sampling rate                            : 48.0 kHz
Frame rate                               : 187.500 FPS (256 SPF)
Compression mode                         : Lossy
Stream size                              : 184 MiB (2%)
Language                                 : English
Service kind                             : Complete Main
Default                                  : No
Forced                                   : No

Text #1
ID                                       : 4
Format                                   : UTF-8
Codec ID                                 : S_TEXT/UTF8
Codec ID/Info                            : UTF-8 Plain Text
Duration                                 : 1 h 37 min
Bit rate                                 : 5 b/s
Count of elements                        : 84
Stream size                              : 3.73 KiB (0%)
Title                                    : Forced
Language                                 : Russian
Default                                  : Yes
Forced                                   : Yes

Text #2
ID                                       : 5
Format                                   : UTF-8
Codec ID                                 : S_TEXT/UTF8
Codec ID/Info                            : UTF-8 Plain Text
Duration                                 : 2 h 10 min
Bit rate                                 : 26 b/s
Count of elements                        : 992
Stream size                              : 25.3 KiB (0%)
Title                                    : SDH
Language                                 : English
Default                                  : No
Forced                                   : No



Скриншоты:
[+] Всего файлов в раздаче - 1:
Nedrugi.2017.WEB-DL.AMZN.1080p.MediaClub.mkv7.97 GB

Текущая раздача:
ДатаКомментарии    РазмерПиры
2018-04-11 U Недруги / Hostiles (2017) WEB-DL 1080p от MediaClub | iTunes 7.97 GB ↑ 50 ↓ 60

Показать еще раздачи по запросу недруги:
2018-04-21 U Недруги / Hostiles (2017) HDRip от Scarabey | iTunes 796.19 MB ↑ 50 ↓ 12
2018-04-20 U Недруги / Hostiles (2017) HDRip от Scarabey | iTunes 1.45 GB ↑ 2928 ↓ 233
2018-04-19 U Недруги / Hostiles (2017) BDRip 1080p от ExKinoRay | iTunes 17.92 GB ↑ 76 ↓ 38
2018-04-18 U Недруги / Hostiles (2017) BDRip 720p от ExKinoRay | iTunes 6.93 GB ↑ 77 ↓ 46
2018-04-17 U Недруги / Hostiles (2017) HDRip | iTunes 2.18 GB ↑ 80 ↓ 65
2018-04-11 U Недруги / Hostiles (2017) WEB-DLRip-AVC от ExKinoRay | iTunes 745.56 MB ↑ 74 ↓ 23
2018-04-11 U Недруги / Hostiles (2017) WEB-DLRip от Scarabey | iTunes 2.17 GB ↑ 90 ↓ 43

Отзывы
Зарегистрируйтесь чтобы добавить комментарий.
Обратная связь
Copyleft ©