↑↓Torrent.by
Поиск
Логин: Регистрация
Пароль: Восстановить пароль
Загрузка...

Иван Бровкин на целине (1958) DVDRip-AVC от KORSAR

Скачать ivan-brovkin-na-celine-1958-dvdrip-avc-ot-korsar.torrent
U Магнитная ссылка Размер: 2.94 GB Раздают: 29 Качают: 24 Добавлен: 2018-04-11 07:26:16
Иван Бровкин на целине (1958) DVDRip-AVC от KORSAR

Иван Бровкин на целине

Страна: СССР
Студия: Киностудия им. М. Горького
Жанр:  Комедия, музыкальный
Год выпуска: 1958
Продолжительность: 01:30:45
Перевод: Не требуется
Режиссер: Иван Лукинский
В ролях: Леонид Харитонов, Татьяна Пельтцер, Сергей Блинников, Анна Коломийцева,
Дая Смирнова, Михаил Пуговкин, Вера Орлова, Константин Синицын, Танат Жайлибеков,
Софья Зайкова, Евгений Шутов, Василий Минин, Юрис Леяскалнс, Борис Толмазов,
Марина (Мария) Гаврилко, Валентин Грачев, Михаил Воробьёв, Клавдия Козленкова,
Евгений Кудряшёв, Антонина Колиниченко, Галина Малиновская, Вадим Новиков,
Евгений Новиков, С. Протопопов, С. Лозовский, Валентина Березуцкая, Николай Смирнов, Лидия Королёва,
Анатолий (Аркадий) Дудоров, Владимир Владиславский, Виктор Иванов, Лев Лобов.
Исполители песен: Леонид Харитонов («Забрала подруга детства сердце у меня» — слова Алексея Фатьянова),
Владимир Нечаев («На трудных дорогах всегда впереди семья комсомольская наша» — слова Алексея Фатьянова).

Описание: Продолжение фильма «Солдат Иван Бровкин».
Главный герой после демобилизации приезжает в родное село, но собирается отсюда отправиться на целину.
Однако его любимая Любаша не хочет покидать свою деревню ради заветной бровкинской мечты.
Бескрайняя оренбургская степь, совхоз «Комсомольский». Весенняя распутица, спешка и деловая суета начала пахоты…
Бровкин трудится с огоньком: помогла закалка, приобретённая в рядах Советской Армии. Бывший непутёвый стал бригадиром.
Это он, стремясь сделать жизнь новосёлов культурной и красивой, организовал в совхозе ателье мод.
Закончив свою эпопею на торговом флоте, в совхоз приезжает Захар Силыч. Вскоре он и Полина ирают весёлую свадьбу.
Один Иван скучает в одиночестве, Любаша даже не отвечает на его письма.
За высокие показатели в труде Иван награждён орденом.
В отпуск он едет в родное село. Снова, перекинув через плечо ремень гармони, Бровкин приходит в дом Любаши.
И недоразумение между возлюбленными кончается полным примирением. В совхоз они едут вместе…
Картина снималась на настоящей целине, в совхозе «Комсомольский» Адамовского района Оренбургской области.
Но в сценарии фильма жизнь целинников, конечно, сильно приукрашена.
Отдельный дом каждому новосёлу, и ванна в доме, и туалет — это что-то из разряда «потёмкинских деревень»…

Кодек: х264
Качество: DVDRip-AVC
Видео: MPEG-4 AVC, 696х560@742x560, 25 fps, 4000 Кбит/с
Аудио: АС3, 6h, 448 Кбит/с, АС3, 2h, 192 Кбит/с
Субтитры: Нет
Главы: Есть


[+] Инфо файл

x264 [info]: frame I:689   Avg QP:17.92  size: 75892
x264 [info]: frame P:30273 Avg QP:20.07  size: 45732
x264 [info]: frame B:105152 Avg QP:22.15  size: 12224

Общее
Уникальный идентификатор                 : 178884529845429871965496974372959182104 (0x8693E8424D6B0AE1B2CBD6F466085D18)
Полное имя                               : I:сссрИван Бровкин на целине 1958_DVDRip-AVC_KORSAR.mkv
Формат                                   : Matroska
Версия формата                           : Version 2
Размер файла                             : 2,94 Гбайт
Продолжительность                        : 1 ч. 30 м.
Общий поток                              : 4642 Кбит/сек
Дата кодирования                         : UTC 2018-04-04 00:44:12
Программа кодирования                    : mkvmerge v5.8.0 ('No Sleep / Pillow') built on Sep  2 2012 15:37:04
Библиотека кодирования                   : libebml v1.2.3 + libmatroska v1.3.0

Видео
Идентификатор                            : 1
Формат                                   : AVC
Формат/Информация                        : Advanced Video Codec
Профиль формата                          : High@L4.1
Настройки формата                        : CABAC / 15 Ref Frames
Параметр CABAC формата                   : Да
Параметр RefFrames формата               : 15 кадров
Идентификатор кодека                     : V_MPEG4/ISO/AVC
Продолжительность                        : 1 ч. 30 м.
Битрейт                                  : 4000 Кбит/сек
Ширина                                   : 696 пикселей
Высота                                   : 560 пикселей
Соотношение сторон                       : 4:3
Соотношение сторон в оригинале           : 4:3
Режим частоты кадров                     : Постоянный
Частота кадров                           : 25,000 кадров/сек
Цветовое пространство                    : YUV
Субдискретизация насыщенности            : 4:2:0
Битовая глубина                          : 8 бит
Тип развёртки                            : Прогрессивная
Бит/(Пиксели*Кадры)                      : 0.411
Размер потока                            : 2,48 Гбайт (84%)
Библиотека кодирования                   : x264 core 152 r2851kMod ba24899
Настройки программы                      : cabac=1 / ref=15 / deblock=1:-2:-2 / analyse=0x3:0x133 / me=umh / subme=11 / psy=1 / fade_compensate=0.00 / psy_rd=0.80:0.03 / mixed_ref=1 / me_range=48 / chroma_me=1 / trellis=2 / 8x8dct=1 / cqm=0 / deadzone=21,11 / fast_pskip=0 / chroma_qp_offset=-3 / threads=12 / lookahead_threads=2 / sliced_threads=0 / nr=0 / decimate=0 / interlaced=0 / bluray_compat=0 / constrained_intra=0 / bframes=8 / b_pyramid=2 / b_adapt=2 / b_bias=0 / direct=3 / weightb=1 / open_gop=0 / weightp=2 / keyint=250 / keyint_min=25 / scenecut=40 / intra_refresh=0 / rc_lookahead=40 / rc=2pass / mbtree=0 / bitrate=4000 / ratetol=1.0 / qcomp=0.60 / qpmin=0 / qpmax=39 / qpstep=4 / cplxblur=20.0 / qblur=0.5 / vbv_maxrate=50000 / vbv_bufsize=62500 / nal_hrd=none / filler=0 / ip_ratio=1.25 / pb_ratio=1.30 / aq=1:0.80
Язык                                     : English
Default                                  : Да
Forced                                   : Нет
Цветовой диапазон                        : Limited
Основные цвета                           : BT.601 PAL
Характеристики трансфера                 : BT.470 System B, BT.470 System G
Коэффициенты матрицы                     : BT.470 System B, BT.470 System G

Аудио #1
Идентификатор                            : 2
Формат                                   : AC-3
Формат/Информация                        : Audio Coding 3
Параметр Endianness формата              : Big
Идентификатор кодека                     : A_AC3
Продолжительность                        : 1 ч. 30 м.
Вид битрейта                             : Постоянный
Битрейт                                  : 448 Кбит/сек
Каналы                                   : 6 каналов
Расположение каналов                     : Front: L C R, Side: L R, LFE
Частота                                  : 48,0 КГц
Частота кадров                           : 31,250 кадров/сек (1536 SPF)
Битовая глубина                          : 16 бит
Метод сжатия                             : С потерями
Задержка видео                           : 560 мс.
Размер потока                            : 291 Мбайт (10%)
Язык                                     : Russian
Default                                  : Да
Forced                                   : Нет

Аудио #2
Идентификатор                            : 3
Формат                                   : AC-3
Формат/Информация                        : Audio Coding 3
Параметр Endianness формата              : Big
Идентификатор кодека                     : A_AC3
Продолжительность                        : 1 ч. 30 м.
Вид битрейта                             : Постоянный
Битрейт                                  : 192 Кбит/сек
Каналы                                   : 1 канал
Расположение каналов                     : Front: C
Частота                                  : 48,0 КГц
Частота кадров                           : 31,250 кадров/сек (1536 SPF)
Битовая глубина                          : 16 бит
Метод сжатия                             : С потерями
Задержка видео                           : 560 мс.
Размер потока                            : 125 Мбайт (4%)
Язык                                     : Russian
Default                                  : Нет
Forced                                   : Нет

Меню
00:00:00.000                             : en:Chapter 1
00:09:01.320                             : en:Chapter 2
00:21:56.200                             : en:Chapter 3
00:27:45.320                             : en:Chapter 4
00:31:57.960                             : en:Chapter 5
00:36:57.640                             : en:Chapter 6
00:44:59.400                             : en:Chapter 7
00:50:29.000                             : en:Chapter 8
00:57:00.520                             : en:Chapter 9
01:07:09.000                             : en:Chapter 10
01:13:00.360                             : en:Chapter 11
01:22:10.600                             : en:Chapter 12
01:30:44.520                             : en:Chapter 13




Скриншоты:
[+] Всего файлов в раздаче - 1:
Иван Бровкин на целине 1958_DVDRip-AVC_KORSAR.mkv2.94 GB

Текущая раздача:
ДатаКомментарии    РазмерПиры
2018-04-11 U Иван Бровкин на целине (1958) DVDRip-AVC от KORSAR 1 К 2.94 GB ↑ 29 ↓ 24

Показать еще раздачи по запросу иван:
2018-04-11 U Солдат Иван Бровкин (1955) DVDRip-AVC от KORSAR 2.35 GB ↑ 37 ↓ 15
2017-12-22 U Роман Светлов, Иван Гончаров (сост.) - Книга Государя. Антология политической мысли (2009) FB2 1.45 MB ↑ 62 ↓ 5
2017-11-21 U Иван Суббота - Темный Эвери 4. На арене со смертью (2017) МР3 409.10 MB ↑ 127 ↓ 11
2017-11-13 U Иван Васильевич меняет профессию (1973) BDRip-AVC 1К1.45 GB ↑ 149 ↓ 19
2017-08-16 U Иван Суббота - Темный Эвери 3. Путь смерти (2017) МР3 421.37 MB ↑ 87 ↓ 4
2017-05-29 U Иван (2016) WEB-DLRip 1080p от MediaClub 3.52 GB ↑ 102 ↓ 14
2017-05-18 U Охлобыстин Иван - Благословляю на праведный бой! Сопротивление мировому злу (2016) FB2 1.26 MB ↑ 242 ↓ 17

Отзывы
GomelLelikGomel
Харитонов был отличный актер, но слава сгубила, жаль, а кино очень хорошее, всем советую.

Зарегистрируйтесь чтобы добавить комментарий.
Обратная связь
Copyleft ©