↑↓Torrent.by
Поиск
Логин: Регистрация
Пароль: Восстановить пароль
Загрузка...

Призвание / The calling (2014) WEB-DL 1080p | P, L1

Скачать prizvanie-the-calling-2014-web-dl-1080p-p-l1.torrent
U Магнитная ссылка Размер: 6.37 GB Раздают: 79 Качают: 19 Добавлен: 2018-04-11 11:55:25
Призвание / The calling (2014) WEB-DL 1080p | P, L1

Название: Призвание / Зов
Оригинальное название: The calling
Год выпуска: 2014
Выпущено: США, Breaking Ball Films, Killer Films, Manis Film
Жанр:  Триллер, детектив
Режиссер: Джейсон Стоун
В ролях: Сьюзен Сарандон, Джил Беллоуз, Эллен Бёрстин, Тофер Грэйс, Дональд Сазерленд, Кристофер Хейердал, Кристин Бут, Аманда Бругел, Паулино Нюнс, Джейн Моффат

О фильме:
Жители тихого канадского городка потрясены произошедшим жестоким убийством. Кто-то хладнокровно расправился с безобидной старушкой, перерезав бедняжке горло с такой силой, что её голова была почти отделена от тела. А вскоре в соседнем округе обнаруживают труп мужчины, которому вспороли живот и вырезали желудок... Два жутких убоя за три дня. Места происшествия разделяют две сотни километров. И на первый взгляд между этими преступлениями нет ничего общего. Но инспектор местной уголовной полиции Хейзел Микаллеф считает, что оба убийства совершены одним человеком. Хейзел уверена, что они имеют дело с маньяком. Он специально выбирает цели далеко друг от друга и намеренно меняет профили жертв, чтобы стражи порядка не смогли их связать. И свою кровавую работу серийный душегуб еще отнюдь не закончил... Однако начальство весьма скептически относиться к выводам дамы-детектива. Никакого маньяка нет... Так кто же окажется прав? И насколько поразительными могут быть мотивы, толкающие людей на убийства?

Продолжительность: 01:48:04
Перевод: Профессиональный многоголосый, любительский
Субтитры: Русские, английские
Навигация по главам: Есть

Файл
Качество: WEB-DL 1080p
Видео: MPEG-4 AVC, 7055 Кбит/сек, 1920x800, 23,976 кадра/сек
Аудио #1: AC3, 6 ch, 384 Кбит/сек | Русский, профессиональный (многоголосый закадровый) iTunes Russia
Аудио #2: AC3, 2 ch, 192 Кбит/сек | Русский, любительский (одноголосый закадровый) Lord32x по переводу Janetta
Аудио #3: EAC3, 6 ch, 640 Кбит/сек | Английский, оригинал



[+] Инфо-файл
Общее
Уникальный идентификатор                 : 238950482906927552839008019180136688134 (0xB3C43063FBBA1A27B62D89E8102BEA06)
Полное имя                               : Призвание.2014.WEB-DL.1080p.mkv
Формат                                   : Matroska
Версия формата                           : Version 2
Размер файла                             : 6,37 Гбайт
Продолжительность                        : 1 ч. 48 м.
Режим общего битрейта                    : Переменный
Общий поток                              : 8439 Кбит/сек
Дата кодирования                         : UTC 2018-04-10 08:33:21
Программа кодирования                    : mkvmerge v5.8.0 ('No Sleep / Pillow') built on Sep  2 2012 15:37:04
Библиотека кодирования                   : libebml v1.2.3 + libmatroska v1.3.0

Видео
Идентификатор                            : 1
Формат                                   : AVC
Формат/Информация                        : Advanced Video Codec
Профиль формата                          : High@L4
Настройки формата                        : CABAC / 4 Ref Frames
Параметр CABAC формата                   : Да
Параметр RefFrames формата               : 4 кадра
Идентификатор кодека                     : V_MPEG4/ISO/AVC
Продолжительность                        : 1 ч. 48 м.
Вид битрейта                             : Переменный
Битрейт                                  : 7055 Кбит/сек
Максимальный битрейт                     : 15,0 Мбит/сек
Ширина                                   : 1920 пикселей
Высота                                   : 800 пикселей
Соотношение сторон                       : 2,40:1
Режим частоты кадров                     : Постоянный
Частота кадров                           : 23,976 (24000/1001) кадра/сек
Цветовое пространство                    : YUV
Субдискретизация насыщенности            : 4:2:0
Битовая глубина                          : 8 бит
Тип развёртки                            : Прогрессивная
Бит/(Пиксели*Кадры)                      : 0.192
Размер потока                            : 5,33 Гбайт (84%)
Библиотека кодирования                   : x264 core 148 r2623 d5b2374
Настройки программы                      : cabac=1 / ref=4 / deblock=1:-1:-1 / analyse=0x3:0x133 / me=umh / subme=9 / psy=1 / psy_rd=1.00:0.15 / mixed_ref=1 / me_range=24 / chroma_me=1 / trellis=2 / 8x8dct=1 / cqm=0 / deadzone=21,11 / fast_pskip=1 / chroma_qp_offset=-3 / threads=25 / lookahead_threads=4 / sliced_threads=0 / nr=150 / decimate=1 / interlaced=0 / bluray_compat=0 / constrained_intra=0 / bframes=8 / b_pyramid=2 / b_adapt=2 / b_bias=0 / direct=3 / weightb=1 / open_gop=0 / weightp=2 / keyint=120 / keyint_min=61 / scenecut=0 / intra_refresh=0 / rc_lookahead=120 / rc=crf / mbtree=1 / crf=18.0 / qcomp=0.60 / qpmin=0 / qpmax=69 / qpstep=4 / vbv_maxrate=15000 / vbv_bufsize=31250 / crf_max=0.0 / nal_hrd=vbr / filler=0 / ip_ratio=1.40 / aq=3:1.00
Язык                                     : English
Default                                  : Да
Forced                                   : Нет
Цветовой диапазон                        : Limited
Основные цвета                           : BT.709
Характеристики трансфера                 : BT.709
Коэффициенты матрицы                     : BT.709

Аудио #1
Идентификатор                            : 2
Формат                                   : AC-3
Формат/Информация                        : Audio Coding 3
Идентификатор кодека                     : A_AC3
Продолжительность                        : 1 ч. 48 м.
Вид битрейта                             : Постоянный
Битрейт                                  : 384 Кбит/сек
Каналы                                   : 6 каналов
Расположение каналов                     : Front: L C R, Side: L R, LFE
Частота                                  : 48,0 КГц
Частота кадров                           : 31,250 кадров/сек (1536 SPF)
Битовая глубина                          : 16 бит
Метод сжатия                             : С потерями
Размер потока                            : 297 Мбайт (5%)
Заголовок                                : MVO | iTunes Russia
Язык                                     : Russian
По умолчанию                             : Да
Принудительно                            : Нет

Аудио #2
Идентификатор                            : 3
Формат                                   : AC-3
Формат/Информация                        : Audio Coding 3
Идентификатор кодека                     : A_AC3
Продолжительность                        : 1 ч. 48 м.
Вид битрейта                             : Постоянный
Битрейт                                  : 192 Кбит/сек
Каналы                                   : 2 канала
Расположение каналов                     : Front: L R
Частота                                  : 48,0 КГц
Частота кадров                           : 31,250 кадров/сек (1536 SPF)
Битовая глубина                          : 16 бит
Метод сжатия                             : С потерями
Размер потока                            : 148 Мбайт (2%)
Заголовок                                : VO | Lord32x
Язык                                     : Russian
По умолчанию                             : Нет
Принудительно                            : Нет

Аудио #3
Идентификатор                            : 4
Формат                                   : E-AC-3
Формат/Информация                        : Enhanced Audio Coding 3
Идентификатор кодека                     : A_EAC3
Продолжительность                        : 1 ч. 48 м.
Вид битрейта                             : Постоянный
Битрейт                                  : 640 Кбит/сек
Каналы                                   : 6 каналов
Расположение каналов                     : Front: L C R, Side: L R, LFE
Частота                                  : 48,0 КГц
Частота кадров                           : 187,500 кадров/сек (256 SPF)
Метод сжатия                             : С потерями
Размер потока                            : 495 Мбайт (8%)
Заголовок                                : Original
Язык                                     : English
По умолчанию                             : Нет
Принудительно                            : Нет

Текст #1
Идентификатор                            : 5
Формат                                   : UTF-8
Идентификатор кодека                     : S_TEXT/UTF8
Идентификатор кодека/Информация          : UTF-8 Plain Text
Язык                                     : Russian
По умолчанию                             : Нет
Принудительно                            : Нет

Текст #2
Идентификатор                            : 6
Формат                                   : UTF-8
Идентификатор кодека                     : S_TEXT/UTF8
Идентификатор кодека/Информация          : UTF-8 Plain Text
Язык                                     : English
По умолчанию                             : Нет
Принудительно                            : Нет

Текст #3
Идентификатор                            : 7
Формат                                   : UTF-8
Идентификатор кодека                     : S_TEXT/UTF8
Идентификатор кодека/Информация          : UTF-8 Plain Text
Заголовок                                : SDH
Язык                                     : English
По умолчанию                             : Нет
Принудительно                            : Нет

Текст #4
Идентификатор                            : 8
Формат                                   : UTF-8
Идентификатор кодека                     : S_TEXT/UTF8
Идентификатор кодека/Информация          : UTF-8 Plain Text
Язык                                     : Finnish
По умолчанию                             : Нет
Принудительно                            : Нет

Меню
00:00:00.000                             : en:1
00:07:02.000                             : en:2
00:13:47.000                             : en:3
00:21:38.000                             : en:4
00:28:15.000                             : en:5
00:33:43.000                             : en:6
00:38:54.000                             : en:7
00:43:44.000                             : en:8
00:51:38.000                             : en:9
00:57:01.000                             : en:10
01:01:17.000                             : en:11
01:09:24.000                             : en:12
01:16:15.000                             : en:13
01:23:03.000                             : en:14
01:29:44.000                             : en:15
01:38:09.000                             : en:16



[+] Дополнительная информация
• Исходник видео WEB-DL Amazon.



Скриншоты:
[+] Всего файлов в раздаче - 1:
Призвание.2014.WEB-DL.1080p.mkv6.37 GB

Текущая раздача:
ДатаКомментарии    РазмерПиры
2018-04-11 U Призвание / The calling (2014) WEB-DL 1080p | P, L1 6.37 GB ↑ 79 ↓ 19

Похожие раздачи по запросу - призвание:
2014-09-22 U Призвание / The Calling (2014) WEB-DLRip | iTunes 2.04 GB ↑ 329 ↓ 92
2014-09-22 U Призвание / The Calling (2014) WEB-DL 720p | iTunes 3.76 GB ↑ 446 ↓ 253

Отзывы
Зарегистрируйтесь чтобы добавить комментарий.
Обратная связь
Copyleft ©