↑↓Torrent.by
Поиск
Логин: Регистрация
Пароль: Восстановить пароль
Загрузка...

Солдат Иван Бровкин (1955) DVDRip-AVC от KORSAR

Скачать soldat-ivan-brovkin-1955-dvdrip-avc-ot-korsar.torrent
U Магнитная ссылка Размер: 2.35 GB Раздают: 37 Качают: 15 Добавлен: 2018-04-11 11:56:02
Солдат Иван Бровкин (1955) DVDRip-AVC от KORSAR

Солдат Иван Бровкин

Страна: СССР
Жанр:  Комедия
Год выпуска: 1955
Продолжительность: 01:27:25 мин.
Перевод: Не требуется
Режиссер: Иван Лукинский
В ролях: Леонид Харитонов, Татьяна Пельтцер, Сергей Блинников, А. Коломийцева, Д. Смирнова, Евгений Шутов,
Михаил Пуговкин, Вера Орлова, Б. Толмазов, Петр Савин, Л. Лобов, Т. Жайлибеков, К. Тыртов

Описание: Иван Бровкин не пользуется уважением в родном колхозе, хотя председателева дочь к нему явно не равнодушна за гармонь и имитации соловьиных трелей.
Бухгалтер, мерзкий интриган и подлец, также имеет интерес к дочери начальства.
Непутевого, но обаятельного парня назначили пасти свиней, а те поели общественную рассаду.
Все это очень расстраивает и его девушку, и маму (Пельтцер).
После утопления грузового автомобиля в местной речушке председатель хочет выгнать сына своего друга-фронтовика,
но тут, слава Богу, забривают Ваню в армию, где смышленый и живой юноша после массы забавных недоразумений и приключений становится хорошим артиллеристом и даже получает отпуск,
чтобы разобраться с негодяем "умственного труда", что перехватывал его письма дочери председателя.
Классика отечественной комедии.
Лидер проката 1955 года.
После появления Бровкина на экране Леонид Харитонов становится звездой отечественного кинематографа, кумиром миллионов.
Его невероятную популярность можно сравнить со славой другого любимца нации, первого космонавта Земли Юрия Гагарина.
И не случайно именно Харитонов поднимается по фестивальной дорожке перед восхищенными взглядами героинь оскароносной мелодрамы В. Меньшова "Москва слезам не верит"

Кодек: х264
Качество: DVDRip-AVC
Видео: MPEG-4 AVC, 670х552@714x552, 25 fps, 3200 Кбит/с
Аудио: АС3, 6h, 448 Кбит/с, АС3, 2h, 192 Кбит/с
Субтитры: Нет
Главы: Есть


[+] Инфо файл

x264 [info]: frame I:689   Avg QP:17.29  size: 68657
x264 [info]: frame P:33284 Avg QP:19.90  size: 33676
x264 [info]: frame B:97142 Avg QP:21.58  size:  9571

Общее
Уникальный идентификатор                 : 204408419129875256877857399862752531930 (0x99C7A128CB1E3C379A1A11F1EE6955DA)
Полное имя                               : I:сссрСолдат Иван Бровкин 1955_DVDRip-AVC_KORSAR.mkv
Формат                                   : Matroska
Версия формата                           : Version 2
Размер файла                             : 2,35 Гбайт
Продолжительность                        : 1 ч. 27 м.
Общий поток                              : 3842 Кбит/сек
Дата кодирования                         : UTC 2018-04-03 14:57:33
Программа кодирования                    : mkvmerge v5.8.0 ('No Sleep / Pillow') built on Sep  2 2012 15:37:04
Библиотека кодирования                   : libebml v1.2.3 + libmatroska v1.3.0

Видео
Идентификатор                            : 1
Формат                                   : AVC
Формат/Информация                        : Advanced Video Codec
Профиль формата                          : High@L4.1
Настройки формата                        : CABAC / 15 Ref Frames
Параметр CABAC формата                   : Да
Параметр RefFrames формата               : 15 кадров
Идентификатор кодека                     : V_MPEG4/ISO/AVC
Продолжительность                        : 1 ч. 27 м.
Битрейт                                  : 3200 Кбит/сек
Ширина                                   : 670 пикселей
Высота                                   : 552 пикселя
Соотношение сторон                       : 1,293
Соотношение сторон в оригинале           : 1,295
Режим частоты кадров                     : Постоянный
Частота кадров                           : 25,000 кадров/сек
Цветовое пространство                    : YUV
Субдискретизация насыщенности            : 4:2:0
Битовая глубина                          : 8 бит
Тип развёртки                            : Прогрессивная
Бит/(Пиксели*Кадры)                      : 0.346
Размер потока                            : 1,91 Гбайт (81%)
Библиотека кодирования                   : x264 core 152 r2851kMod ba24899
Настройки программы                      : cabac=1 / ref=15 / deblock=1:-2:-2 / analyse=0x3:0x133 / me=umh / subme=11 / psy=1 / fade_compensate=0.00 / psy_rd=1.05:0.10 / mixed_ref=1 / me_range=48 / chroma_me=1 / trellis=2 / 8x8dct=1 / cqm=0 / deadzone=21,11 / fast_pskip=0 / chroma_qp_offset=-3 / threads=12 / lookahead_threads=2 / sliced_threads=0 / nr=0 / decimate=0 / interlaced=0 / bluray_compat=0 / constrained_intra=0 / bframes=8 / b_pyramid=2 / b_adapt=2 / b_bias=0 / direct=3 / weightb=1 / open_gop=0 / weightp=2 / keyint=250 / keyint_min=25 / scenecut=40 / intra_refresh=0 / rc_lookahead=40 / rc=2pass / mbtree=0 / bitrate=3200 / ratetol=1.0 / qcomp=0.60 / qpmin=0 / qpmax=39 / qpstep=4 / cplxblur=20.0 / qblur=0.5 / vbv_maxrate=50000 / vbv_bufsize=62500 / nal_hrd=none / filler=0 / ip_ratio=1.25 / pb_ratio=1.30 / aq=1:1.00
Язык                                     : English
Default                                  : Да
Forced                                   : Нет
Цветовой диапазон                        : Limited
Основные цвета                           : BT.601 PAL
Характеристики трансфера                 : BT.470 System B, BT.470 System G
Коэффициенты матрицы                     : BT.470 System B, BT.470 System G

Аудио #1
Идентификатор                            : 2
Формат                                   : AC-3
Формат/Информация                        : Audio Coding 3
Параметр Endianness формата              : Big
Идентификатор кодека                     : A_AC3
Продолжительность                        : 1 ч. 27 м.
Вид битрейта                             : Постоянный
Битрейт                                  : 448 Кбит/сек
Каналы                                   : 6 каналов
Расположение каналов                     : Front: L C R, Side: L R, LFE
Частота                                  : 48,0 КГц
Частота кадров                           : 31,250 кадров/сек (1536 SPF)
Битовая глубина                          : 16 бит
Метод сжатия                             : С потерями
Задержка видео                           : 640 мс.
Размер потока                            : 280 Мбайт (12%)
Язык                                     : Russian
Default                                  : Да
Forced                                   : Нет

Аудио #2
Идентификатор                            : 3
Формат                                   : AC-3
Формат/Информация                        : Audio Coding 3
Параметр Endianness формата              : Big
Идентификатор кодека                     : A_AC3
Продолжительность                        : 1 ч. 27 м.
Вид битрейта                             : Постоянный
Битрейт                                  : 192 Кбит/сек
Каналы                                   : 1 канал
Расположение каналов                     : Front: C
Частота                                  : 48,0 КГц
Частота кадров                           : 31,250 кадров/сек (1536 SPF)
Битовая глубина                          : 16 бит
Метод сжатия                             : С потерями
Задержка видео                           : 640 мс.
Размер потока                            : 120 Мбайт (5%)
Язык                                     : Russian
Default                                  : Нет
Forced                                   : Нет

Меню
00:00:00.000                             : en:Chapter 1
00:05:53.160                             : en:Chapter 2
00:11:23.880                             : en:Chapter 3
00:17:24.320                             : en:Chapter 4
00:23:31.160                             : en:Chapter 5
00:31:37.680                             : en:Chapter 6
00:41:23.360                             : en:Chapter 7
00:47:35.360                             : en:Chapter 8
00:51:14.160                             : en:Chapter 9
00:56:56.360                             : en:Chapter 10
01:05:33.200                             : en:Chapter 11
01:16:52.320                             : en:Chapter 12
01:27:24.520                             : en:Chapter 13




Скриншоты:
[+] Всего файлов в раздаче - 1:
Солдат Иван Бровкин 1955_DVDRip-AVC_KORSAR.mkv2.35 GB

Текущая раздача:
ДатаКомментарии    РазмерПиры
2018-04-11 U Солдат Иван Бровкин (1955) DVDRip-AVC от KORSAR 2.35 GB ↑ 37 ↓ 15

Показать еще раздачи по запросу солдат:
2018-04-22 U Борис Громов - Солдат без знамени (2018) MP3 209.32 MB ↑ 24 ↓ 5
2017-10-08 U Прюллер Вильгельм - Солдат на войне. Фронтовые хроники обер-лейтенанта Вермахта. 1939–1945 (2016) FB2 942.36 kB ↑ 108 ↓ 29
2017-08-20 U Солдат / Soldier (1998) BDRip | D 1.46 GB ↑ 41 ↓ 25
2017-01-26 U Внутренний демон: Солдат с того света / Daemonium: Underground Soldier (2015) WEBRip от ExKinoRay | L1 1.45 GB ↑ 264 ↓ 116
2016-07-02 U Михаил Барятинский - Т-54 и Т-55. «Танк-солдат» (2015) PDF 20.10 MB ↑ 129 ↓ 12
2016-04-12 U Кессельринг Альбрехт - Солдат до последнего дня. Воспоминания фельдмаршала Третьего рейха. 1933-1947 (2013) FB2 3.07 MB ↑ 176 ↓ 8
2014-12-14 U Солдат / Holiday (2014) DVDRip | L 2.19 GB ↑ 181 ↓ 126

Отзывы
Зарегистрируйтесь чтобы добавить комментарий.
Обратная связь
Copyleft ©