↑↓Torrent.by
Поиск
Логин: Регистрация
Пароль: Восстановить пароль
Загрузка...

Террор / The Terror [S01] (2018) HDTVRip 720p | ColdFilm

Скачать terror-the-s01-2018-hdtvrip-720p-coldfilm.torrent
U Магнитная ссылка Размер: 13.87 GB Раздают: 72 Качают: 281 Добавлен: 2018-04-11 14:51:52
Террор / The Terror [S01] (2018) HDTVRip 720p | ColdFilm

Название: Террор
Оригинальное название: The Terror
Год выпуска: 2018
Жанр:  Ужасы, драма
Режиссер: Милантс, Эдвард Бергер, Серджо Мимика-Геззан
В ролях: Джаред Харрис, Киаран Хайндс, Тобайас Мензис, Крис Корригэн, Иэн Харт, Кристос Лоутон, Мэттью МакНалти, Адам Нагаитис, Нив Нилсен, Пол Рэди, Себастьян Арместо, Эдвард Эшли, Майки Коллинз, Кевин Гатри, Аарон Джеффкот, Дэвид Уолмсли, Гай Фолкнер, Лиам Гэрриган, Чарли Келли, Кэролайн Болтон

О фильме:
В 1845 году экспедиция под командованием опытного полярного исследователя сэра Джона Франклина отправляется на судах «Террор» и «Эребус» к северному побережью Канады на поиск Северо-Западного прохода из Атлантического океана в Тихий — и бесследно исчезает. Поиски ее затянулись на несколько десятилетий, сведения о ее судьбе собирались буквально по крупицам, и до сих пор картина происшедшего пестрит белыми пятнами… Дэн Симмонс, знаменитый автор «Гипериона» и «Эндимиона», «Илиона» и «Олимпа», «Песни Кали» и «Темной игры смерти», предлагает свою версию событий: главную угрозу для экспедиции составляли не сокрушительные объятия льда, не стужа с вьюгой и не испорченные консервы — а неведомое исполинское чудовище, будто сотканное из снега и полярного мрака.

Страна: США, EMJAG Productions, Entertainment 360, Scott Free Productions
Продолжительность: 10 x ~ 00:42:00
Перевод: Любительский многоголосый [ColdFilm]

Файл
Кодек: x264 AVC
Качество: HDTVRip 720p
Видео: 4000 Кбит/с, 1280x720, 29.970 fps
Аудио: Русский (AC3, 2 ch, 192 Кбит/с)

Релиз:


[+] MI
General
Unique ID                   : 177664413322925047744684920239356831559 (0x85A8EBDEB6336E999487E6EA5556E747)
Complete name               : D:The.Terror.S01E.720p.ColdFilmThe.Terror.S01E01.720p.ColdFilm.mkv
Format                      : Matroska
Format version              : Version 2
File size                   : 1.34 GiB
Duration                    : 45 min 52 s
Overall bit rate            : 4 194 kb/s
Encoded date                : UTC 2018-03-26 07:32:49 / UTC 2017-11-20 18:25:40
Writing application         : mkvmerge v3.3.0 ('Language') built on Mar 24 2010 14:59:24
Writing library             : libebml v0.8.0 + libmatroska v0.9.0 / Lavf54.63.104

Video
ID                          : 1
Format                      : AVC
Format/Info                 : Advanced Video Codec
Format profile              : Main@L3.1
Format settings             : CABAC / 1 Ref Frames
Format settings, CABAC      : Yes
Format settings, ReFrames   : 1 frame
Codec ID                    : V_MPEG4/ISO/AVC
Duration                    : 45 min 52 s
Bit rate                    : 4 000 kb/s
Width                       : 1 280 pixels
Height                      : 720 pixels
Display aspect ratio        : 16:9
Frame rate mode             : Constant
Frame rate                  : 25.000 FPS
Color space                 : YUV
Chroma subsampling          : 4:2:0
Bit depth                   : 8 bits
Scan type                   : Progressive
Bits/(Pixel*Frame)          : 0.174
Stream size                 : 1.26 GiB (93%)
Writing library             : x264 core 129
Encoding settings           : cabac=1 / ref=1 / deblock=1:0:0 / analyse=0x1:0x131 / me=dia / subme=2 / psy=1 / psy_rd=1.00:0.00 / mixed_ref=0 / me_range=16 / chroma_me=1 / trellis=0 / 8x8dct=0 / cqm=0 / deadzone=21,11 / fast_pskip=1 / chroma_qp_offset=0 / threads=4 / lookahead_threads=1 / sliced_threads=0 / nr=0 / decimate=1 / interlaced=0 / bluray_compat=0 / constrained_intra=0 / bframes=0 / weightp=2 / keyint=250 / keyint_min=25 / scenecut=40 / intra_refresh=0 / rc_lookahead=40 / rc=abr / mbtree=1 / bitrate=4000 / ratetol=1.0 / qcomp=0.60 / qpmin=10 / qpmax=51 / qpstep=4 / ip_ratio=1.41 / aq=1:1.00
Default                     : No
Forced                      : No

Audio
ID                          : 2
Format                      : AC-3
Format/Info                 : Audio Coding 3
Codec ID                    : A_AC3
Duration                    : 45 min 52 s
Bit rate mode               : Constant
Bit rate                    : 192 kb/s
Channel(s)                  : 2 channels
Channel positions           : Front: L R
Sampling rate               : 48.0 kHz
Frame rate                  : 31.250 FPS (1536 SPF)
Bit depth                   : 16 bits
Compression mode            : Lossy
Stream size                 : 63.0 MiB (5%)
Service kind                : Complete Main
Default                     : Yes
Forced                      : No




Скриншоты:
[+] Всего файлов в раздаче - 10:
The.Terror.S01E09.720p.ColdFilm.mkv1.67 GB
The.Terror.S01E10.720p.ColdFilm.mkv1.58 GB
The.Terror.S01E07.720p.ColdFilm.mkv1.38 GB
The.Terror.S01E04.720p.ColdFilm.mkv1.38 GB
The.Terror.S01E06.720p.ColdFilm.mkv1.37 GB
The.Terror.S01E08.720p.ColdFilm.mkv1.37 GB
The.Terror.S01E01.720p.ColdFilm.mkv1.34 GB
The.Terror.S01E03.720p.ColdFilm.mkv1.28 GB
The.Terror.S01E05.720p.ColdFilm.mkv1.26 GB
The.Terror.S01E02.720p.ColdFilm.mkv1.23 GB

Текущая раздача:
ДатаКомментарии    РазмерПиры
2018-04-11 U Террор / The Terror [S01] (2018) HDTVRip 720p | ColdFilm 13.87 GB ↑ 72 ↓ 281

Показать еще раздачи по запросу террор:
2018-08-28 U Террор / The Terror [S01] (2018) WEBRip | Good People 5.81 GB ↑ 53 ↓ 111
2018-05-01 U Террор / The Terror [S01] (2018) WEB-DL 1080p | LostFilm 31.74 GB ↑ 35 ↓ 38
2018-04-30 U Террор / The Terror [S01] (2018) WEB-DLRip | LostFilm 5.86 GB ↑ 169 ↓ 110
2018-04-30 U Террор / The Terror [S01] (2018) WEB-DL 720p | LostFilm 13.78 GB ↑ 85 ↓ 139
2018-04-23 U Террор / The Terror [S01] (2018) WEB-DL 1080p | NewStudio 27.56 GB ↑ 96 ↓ 120
2018-04-19 U Террор / The Terror [S01] (2018) WEBRip | BaibaKo 9.22 GB ↑ 39 ↓ 55
2018-04-14 U Террор / The Terror [S01] (2018) HDTVRip 720p | GostFilm 14.40 GB ↑ 73 ↓ 139

Отзывы
Зарегистрируйтесь чтобы добавить комментарий.
Обратная связь
Copyleft ©