↑↓Torrent.by
Поиск
Логин: Регистрация
Пароль: Восстановить пароль
Загрузка...

Мумия / The Mummy (2017) BDRip 1080p | D, A | Лицензия

Скачать mumiya-the-mummy-2017-bdrip-1080p-d-a-licenziya.torrent
U Магнитная ссылка Размер: 15.88 GB Раздают: 57 Качают: 95 Добавлен: 2018-04-11 17:15:38
Мумия / The Mummy (2017) BDRip 1080p | D, A | Лицензия

Название: Мумия
Оригинальное название: The Mummy
Год выхода: 2017
Жанр: Ужасы, фэнтези, боевик, приключения
Режиссер: Алекс Куртцман
В ролях: Том Круз, Расселл Кроу, Аннабелль Уоллис, София Бутелла, Джейк Джонсон, Кортни Б. Вэнс, Марван Кензари, Саймон Атертон, Стивен Томпсон, Джеймс Арама

О фильме: Посреди безжалостной пустыни в величественном саркофаге погребена дочь египетского фараона, но настанет день, и она явится в наш мир вернуть себе то, что принадлежит ей по праву. Отныне миром правят боги и монстры.

Страна: США, Китай, Япония
Студия: Universal Pictures
Продолжительность: 01:50:06
Перевод: профессиональный (дублированный), авторский (одноголосый)
Субтитры: русские (forced, full), английские (full, SDH)

Формат: MKV
Качество: BDRip 1080p
Видео: MPEG-4 AVC, 15 Mbps, 1920x800, 23.976 fps
Звук:
#1. Russian: DTS Audio, 5.1, 48 kHz, 768 kbps - Дублированный
#2. Russian: DTS Audio, 5.1, 48 kHz, 1536 kbps - Авторский (Живов)
#3. Russian: DTS Audio, 5.1, 48 kHz, 1536 kbps - Авторский (Сербин)
#4. Russian: DTS Audio, 5.1, 48 kHz, 1536 kbps - Авторский (Дохалов)
#5. English: Dolby Digital, 5.1, 48 kHz, 640 kbps - Оригинал (Английский)


[+] MediaInfo
Format                      : Matroska
Format version              : Version 2
File size                   : 15.9 GiB
Duration                    : 1 h 50 min
Overall bit rate            : 20.7 Mb/s
Movie name                  : The Mummy (2017) BDRip 1080p
Encoded date                : UTC 2018-04-11 10:36:47
Writing application         : mkvmerge v4.9.1 ('Ich will') сборка от Jul 11 2011 23:53:15
Writing library             : libebml v1.2.1 + libmatroska v1.1.1

Video
ID                          : 1
Format                      : AVC
Format/Info                 : Advanced Video Codec
Format profile              : High@L4.1
Format settings, CABAC      : Yes
Format settings, RefFrames  : 4 frames
Codec ID                    : V_MPEG4/ISO/AVC
Duration                    : 1 h 50 min
Bit rate                    : 15.0 Mb/s
Width                       : 1 920 pixels
Height                      : 800 pixels
Display aspect ratio        : 2.40:1
Frame rate mode             : Constant
Frame rate                  : 23.976 (24000/1001) FPS
Color space                 : YUV
Chroma subsampling          : 4:2:0
Bit depth                   : 8 bits
Scan type                   : Progressive
Bits/(Pixel*Frame)          : 0.407
Stream size                 : 11.0 GiB (69%)
Title                       : The Mummy (2017)
Writing library             : x264 core 149 r2771+45 509cceb 7mod [8-bit@all X86_64]
Encoding settings           : cabac=1 / ref=4 / deblock=1:-1:-1 / analyse=0x3:0x133 / me=umh / subme=11 / psy=1 / fade_compensate=0.00 / psy_rd=0.95:0.10 / mixed_ref=1 / me_range=48 / chroma_me=1 / trellis=2 / 8x8dct=1 / cqm=0 / deadzone=21,11 / fast_pskip=0 / chroma_qp_offset=-4 / threads=12 / lookahead_threads=2 / sliced_threads=0 / nr=0 / decimate=1 / interlaced=0 / bluray_compat=0 / constrained_intra=0 / fgo=0 / bframes=9 / b_pyramid=2 / b_adapt=2 / b_bias=0 / direct=3 / weightb=1 / open_gop=0 / weightp=2 / keyint=250 / keyint_min=23 / scenecut=40 / intra_refresh=0 / rc_lookahead=30 / rc=2pass / mbtree=0 / bitrate=15000 / ratetol=1.0 / qcomp=0.70 / qpmin=0:0:0 / qpmax=69:69:69 / qpstep=4 / cplxblur=20.0 / qblur=0.5 / vbv_maxrate=35000 / vbv_bufsize=35000 / nal_hrd=none / filler=0 / ip_ratio=1.40 / pb_ratio=1.30 / aq=3:1.00 / aq-sensitivity=10.00 / aq-factor=1.00:1.00:1.00 / aq2=0 / aq3=2:[0.50:0.50]:[0.50:0.50]:[0.50:0.50]:[0.50:0.50] / aq3-sensitivity=10.00 / aq3-factor=[1.00:1.00]:[1.00:1.00]:[1.00:1.00] / aq3-boundary=192:64:24
Language                    : English
Default                     : Yes
Forced                      : No

Audio #1
ID                          : 2
Format                      : DTS
Format/Info                 : Digital Theater Systems
Mode                        : 16
Format settings, Endianness : Big
Codec ID                    : A_DTS
Duration                    : 1 h 50 min
Bit rate mode               : Constant
Bit rate                    : 768 kb/s
Channel(s)                  : 6 channels
Channel positions           : Front: L C R, Side: L R, LFE
Sampling rate               : 48.0 kHz
Frame rate                  : 93.750 FPS (512 SPF)
Bit depth                   : 24 bits
Compression mode            : Lossy
Stream size                 : 605 MiB (4%)
Title                       : Дубляж
Language                    : Russian
Default                     : Yes
Forced                      : No

Audio #2
ID                          : 3
Format                      : DTS
Format/Info                 : Digital Theater Systems
Mode                        : 16
Format settings, Endianness : Big
Codec ID                    : A_DTS
Duration                    : 1 h 50 min
Bit rate mode               : Constant
Bit rate                    : 1 509 kb/s
Channel(s)                  : 6 channels
Channel positions           : Front: L C R, Side: L R, LFE
Sampling rate               : 48.0 kHz
Frame rate                  : 93.750 FPS (512 SPF)
Bit depth                   : 24 bits
Compression mode            : Lossy
Stream size                 : 1.16 GiB (7%)
Title                       : Живов
Language                    : Russian
Default                     : No
Forced                      : No

Audio #3
ID                          : 4
Format                      : DTS
Format/Info                 : Digital Theater Systems
Mode                        : 16
Format settings, Endianness : Big
Codec ID                    : A_DTS
Duration                    : 1 h 50 min
Bit rate mode               : Constant
Bit rate                    : 1 509 kb/s
Channel(s)                  : 6 channels
Channel positions           : Front: L C R, Side: L R, LFE
Sampling rate               : 48.0 kHz
Frame rate                  : 93.750 FPS (512 SPF)
Bit depth                   : 24 bits
Compression mode            : Lossy
Stream size                 : 1.16 GiB (7%)
Title                       : Сербин
Language                    : Russian
Default                     : No
Forced                      : No

Audio #4
ID                          : 5
Format                      : DTS
Format/Info                 : Digital Theater Systems
Mode                        : 16
Format settings, Endianness : Big
Codec ID                    : A_DTS
Duration                    : 1 h 50 min
Bit rate mode               : Constant
Bit rate                    : 1 509 kb/s
Channel(s)                  : 6 channels
Channel positions           : Front: L C R, Side: L R, LFE
Sampling rate               : 48.0 kHz
Frame rate                  : 93.750 FPS (512 SPF)
Bit depth                   : 24 bits
Compression mode            : Lossy
Stream size                 : 1.16 GiB (7%)
Title                       : Дохалов
Language                    : Russian
Default                     : No
Forced                      : No

Audio #5
ID                          : 6
Format                      : AC-3
Format/Info                 : Audio Coding 3
Format settings, Endianness : Big
Codec ID                    : A_AC3
Duration                    : 1 h 50 min
Bit rate mode               : Constant
Bit rate                    : 640 kb/s
Channel(s)                  : 6 channels
Channel positions           : Front: L C R, Side: L R, LFE
Sampling rate               : 48.0 kHz
Frame rate                  : 31.250 FPS (1536 SPF)
Bit depth                   : 16 bits
Compression mode            : Lossy
Stream size                 : 504 MiB (3%)
Title                       : Original
Language                    : English
Service kind                : Complete Main
Default                     : No
Forced                      : No

Text #1
ID                          : 7
Format                      : UTF-8
Codec ID                    : S_TEXT/UTF8
Codec ID/Info               : UTF-8 Plain Text
Title                       : Forced
Language                    : Russian
Default                     : Yes
Forced                      : No

Text #2
ID                          : 8
Format                      : UTF-8
Codec ID                    : S_TEXT/UTF8
Codec ID/Info               : UTF-8 Plain Text
Title                       : Full
Language                    : Russian
Default                     : No
Forced                      : No

Text #3
ID                          : 9
Format                      : UTF-8
Codec ID                    : S_TEXT/UTF8
Codec ID/Info               : UTF-8 Plain Text
Title                       : Full
Language                    : English
Default                     : No
Forced                      : No

Text #4
ID                          : 10
Format                      : UTF-8
Codec ID                    : S_TEXT/UTF8
Codec ID/Info               : UTF-8 Plain Text
Title                       : SDH
Language                    : English
Default                     : No
Forced                      : No

Menu
00:00:00.000                : en:00:00:00.000
00:08:18.707                : en:00:08:18.707
00:13:18.923                : en:00:13:18.923
00:19:31.462                : en:00:19:31.462
00:24:40.145                : en:00:24:40.145
00:28:54.107                : en:00:28:54.107
00:35:41.389                : en:00:35:41.389
00:39:36.040                : en:00:39:36.040
00:47:00.067                : en:00:47:00.067
00:50:57.638                : en:00:50:57.638
00:56:49.740                : en:00:56:49.740
01:00:43.849                : en:01:00:43.849
01:08:58.009                : en:01:08:58.009
01:16:03.851                : en:01:16:03.851
01:19:38.440                : en:01:19:38.440
01:23:16.408                : en:01:23:16.408
01:26:26.848                : en:01:26:26.848
01:33:34.943                : en:01:33:34.943
01:37:02.984                : en:01:37:02.984
01:39:47.982                : en:01:39:47.982



Скриншоты:
[+] Всего файлов в раздаче - 1:
The Mummy (2017) BDRip 1080p.mkv15.88 GB

Текущая раздача:
ДатаКомментарии    РазмерПиры
2018-04-11 U Мумия / The Mummy (2017) BDRip 1080p | D, A | Лицензия 15.88 GB ↑ 57 ↓ 95

Показать еще раздачи по запросу мумия:
2018-05-04 U Мумия / The Mummy (2017) BDRip-AVC от MediaClub 3.85 GB ↑ 33 ↓ 10
2018-04-01 U Мумия / The Mummy (2017) BDRip 720p от R.G. HD-Films | D, A | Лицензия | 60 fps 9.17 GB ↑ 65 ↓ 50
2017-12-14 U Мумия / The Mummy (2017) WEBRip от Seven | D | Локализованный видеоряд 1.46 GB ↑ 192 ↓ 33
2017-12-12 U Мумия: Гробница Императора Драконов / The Mummy: Tomb of the Dragon Emperor (2008) BDRip-HEVC 1080p | D 5.41 GB ↑ 55 ↓ 33
2017-10-04 U Мумия / The Mummy (2017) BDRip-AVC от ExKinoRay | Лицензия 2.47 GB ↑ 45 ↓ 38
2017-10-03 U Мумия / The Mummy (2017) BDRip от HQCLUB | Лицензия 2.18 GB ↑ 296 ↓ 43
2017-09-27 U Мумия / The Mummy (2017) HDRip от Scarabey | Лицензия 1.45 GB ↑ 325 ↓ 56

Отзывы
Зарегистрируйтесь чтобы добавить комментарий.
Обратная связь
Copyleft ©