↑↓Torrent.by
Поиск
Логин: Регистрация
Пароль: Восстановить пароль
Загрузка...

Байкеры / Bajkeri (2017) DVDRip | L1

Скачать baykery-bajkeri-2017-dvdrip-l1.torrent
U Магнитная ссылка Размер: 1.45 GB Раздают: 72 Качают: 33 Добавлен: 2018-04-11 19:14:26
Байкеры / Bajkeri (2017) DVDRip | L1

Байкеры / Bajkeri

Страна: Чехия
Год выпуска: 2017
Жанр:  комедия
Продолжительность: 01:32:43

Режиссер: Мартин Куп

В ролях: Дана Батулькова, Селеста Бакинхем, Степанка Фингерхутова, Ванда Гибнерова, Ян Коминек, Войцех Мачута, Томаш Матонога, Адам Мислик

Описание: Три взрослых парня не вылезают из интернета и совершенно оторваны от внешнего мира. Наконец разъяренный отец одного из них, Давида, отправляет его на велосипеде, наездить 200 км под присмотром своей подружки Терезы. Бывшая жена выпирает с ними пасынка, Яхима. В ужасе от общения с этими двоими, Давид тащит с собой друга Сашу. И вот эта странная троица оказывается в палатках, где не только нет сигнала, но и негде подзарядить мобильник. И что еще ужаснее для социально зависимых парней, в том же кемпинге ночует группа реальных девчонок под присмотром чокнутого тренера, и трасса у них та же...

Перевод: Любительский (одноголосый, закадровый) | Kass (женский)
Субтитры: нет

Качество: DVDRip
Формат: AVI
Видео кодек: XviD
Аудио кодек: АС3
Видео: 720x336 (2.143), 25.000 fps, XviD ~2 031 kbps avg
Аудио: 48.0 kHz, AC3 Dolby Digital, 2/0 (L,R) ch, ~192 kbps

Дата премьеры (мир): 8 сентября 2017

Семпл


[+] Media Info
General
Complete name                            : Bajkeri.2017.DVDrip.RusVO.Kass.avi
Format                                   : AVI
Format/Info                              : Audio Video Interleave
File size                                : 1.45 GiB
Duration                                 : 1h 32mn
Overall bit rate                         : 2 233 Kbps
Writing library                          : VirtualDub build 32842/release

Video
ID                                       : 0
Format                                   : MPEG-4 Visual
Format profile                           : Advanced Simple@L5
Format settings, BVOP                    : 2
Format settings, QPel                    : No
Format settings, GMC                     : No warppoints
Format settings, Matrix                  : Default (H.263)
Codec ID                                 : XVID
Codec ID/Hint                            : XviD
Duration                                 : 1h 32mn
Bit rate                                 : 2 031 Kbps
Width                                    : 720 pixels
Height                                   : 336 pixels
Display aspect ratio                     : 2.143
Frame rate                               : 25.000 fps
Color space                              : YUV
Chroma subsampling                       : 4:2:0
Bit depth                                : 8 bits
Scan type                                : Progressive
Compression mode                         : Lossy
Bits/(Pixel*Frame)                       : 0.336
Stream size                              : 1.32 GiB (91%)
Writing library                          : XviD 64

Audio
ID                                       : 1
Format                                   : AC-3
Format/Info                              : Audio Coding 3
Mode extension                           : CM (complete main)
Format settings, Endianness              : Big
Codec ID                                 : 2000
Duration                                 : 1h 32mn
Bit rate mode                            : Constant
Bit rate                                 : 192 Kbps
Channel(s)                               : 2 channels
Channel positions                        : Front: L R
Sampling rate                            : 48.0 KHz
Compression mode                         : Lossy
Stream size                              : 127 MiB (9%)
Alignment                                : Aligned on interleaves
Interleave, duration                     : 40 ms (1.00 video frame)
Interleave, preload duration             : 512 ms



Скриншоты:
[+] Всего файлов в раздаче - 1:
Bajkeri.2017.DVDrip.RusVO.Kass.avi1.45 GB

Отзывы
Зарегистрируйтесь чтобы добавить комментарий.
Обратная связь
Copyleft ©