↑↓Torrent.by
Поиск
Логин: Регистрация
Пароль: Восстановить пароль
Загрузка...

Охота на воров / Den of Thieves (2018) WEB-DL 1080p от ExKinoRay | iTunes

Скачать ohota-na-vorov-den-of-thieves-2018-web-dl-1080p-ot-exkinoray-itunes.torrent
U Магнитная ссылка Размер: 5.24 GB Раздают: 472 Качают: 251 Добавлен: 2018-04-12 08:19:37
Охота на воров / Den of Thieves (2018) WEB-DL 1080p от ExKinoRay | iTunes

Название: Охота на воров
Оригинальное название: Den of Thieves
Год выхода: 2018
Жанр: Боевик, триллер, драма, криминал, детектив
Режиссер: Кристиан Гьюдгэст
В ролях: Джерард Батлер, Джордан Бриджес, Пабло Шрайбер, Ивэн Джонс, О`Ши Джексон мл., 50 Cent, Соня Балморес, Эрик Браден, Брайан Ван Холт, Морис Комт

О фильме:
Большой Ник — начальник элитного подразделения полиции Лос-Анджелеса — ежедневно доказывает, что его команда более крутая, чем те, на кого они охотятся. Когда коп узнает, что легендарный и неуловимый вор планирует дерзкое ограбление Федерального резервного банка США, то он решает помешать этому любым способом. И играть по правилам он не привык.

Страна: США
Студия: Diamond Film Productions, G-BASE, Tucker Tooley Entertainment
Продолжительность: 02:20:01
Перевод: Дублированный | iTunes

Качество: WEB-DL 1080p
Видео: MPEG-4 AVC, 1912x792, 4586 Kbit/s, 23.976 fps
Звук:
Аудио #01: 48 kHz, AC3, 5.1, 384 Kbps | iTunes | RUS |
Аудио #02: 48 kHz, AC3, 5.1, 384 Kbps | Оригинал |  ENG |
Субтитры: Английские

Релиз: Автор релиза:


[+] MI
General
Unique ID                   : 126898232348822073816195069629473423828 (0x5F77B5E710F3132B4E6385E9C39B01D4)
Complete name               : C:Video111Den.of.Thieves.2018.WEB-DL.1080p.ExKinoRay.mkv
Format                      : Matroska
Format version              : Version 4 / Version 2
File size                   : 5.24 GiB
Duration                    : 2 h 20 min
Overall bit rate            : 5 356 kb/s
Movie name                  : Den of Thieves 2018 from ExKinoRay
Encoded date                : UTC 2018-04-11 18:21:31
Writing application         : mkvmerge v22.0.0 ('At The End Of The World') 64-bit
Writing library             : libebml v1.3.5 + libmatroska v1.4.8

Video
ID                          : 1
Format                      : AVC
Format/Info                 : Advanced Video Codec
Format profile              : High@L4
Format settings             : CABAC / 5 Ref Frames
Format settings, CABAC      : Yes
Format settings, ReFrames   : 5 frames
Codec ID                    : V_MPEG4/ISO/AVC
Duration                    : 2 h 20 min
Bit rate                    : 4 586 kb/s
Width                       : 1 912 pixels
Height                      : 792 pixels
Display aspect ratio        : 2.40:1
Frame rate mode             : Constant
Frame rate                  : 23.976 (23976/1000) FPS
Color space                 : YUV
Chroma subsampling          : 4:2:0
Bit depth                   : 8 bits
Scan type                   : Progressive
Bits/(Pixel*Frame)          : 0.126
Stream size                 : 4.49 GiB (86%)
Language                    : English
Default                     : Yes
Forced                      : No
Color range                 : Limited
Color primaries             : BT.709
Transfer characteristics    : BT.709
Matrix coefficients         : BT.709

Audio #1
ID                          : 2
Format                      : AC-3
Format/Info                 : Audio Coding 3
Codec ID                    : A_AC3
Duration                    : 2 h 20 min
Bit rate mode               : Constant
Bit rate                    : 384 kb/s
Channel(s)                  : 6 channels
Channel positions           : Front: L C R, Side: L R, LFE
Sampling rate               : 48.0 kHz
Frame rate                  : 31.250 FPS (1536 SPF)
Bit depth                   : 16 bits
Compression mode            : Lossy
Delay relative to video     : -42 ms
Stream size                 : 385 MiB (7%)
Title                       : iTunes
Language                    : Russian
Service kind                : Complete Main
Default                     : Yes
Forced                      : Yes

Audio #2
ID                          : 3
Format                      : AC-3
Format/Info                 : Audio Coding 3
Codec ID                    : A_AC3
Duration                    : 2 h 20 min
Bit rate mode               : Constant
Bit rate                    : 384 kb/s
Channel(s)                  : 6 channels
Channel positions           : Front: L C R, Side: L R, LFE
Sampling rate               : 48.0 kHz
Frame rate                  : 31.250 FPS (1536 SPF)
Bit depth                   : 16 bits
Compression mode            : Lossy
Delay relative to video     : -42 ms
Stream size                 : 385 MiB (7%)
Title                       : Original
Language                    : English
Service kind                : Complete Main
Default                     : No
Forced                      : No

Text
ID                          : 4
Format                      : UTF-8
Codec ID                    : S_TEXT/UTF8
Codec ID/Info               : UTF-8 Plain Text
Duration                    : 2 h 11 min
Bit rate                    : 46 b/s
Count of elements           : 1482
Stream size                 : 44.6 KiB (0%)
Title                       : Full
Language                    : English
Default                     : No
Forced                      : No

Menu
00:00:00.000                : en:1
00:09:15.000                : en:2
00:18:58.000                : en:3
00:31:49.000                : en:4
00:38:14.000                : en:5
00:48:11.000                : en:6
00:58:05.000                : en:7
01:08:43.000                : en:8
01:16:24.000                : en:9
01:26:19.000                : en:10
01:41:35.000                : en:11
01:49:43.000                : en:12
02:08:22.000                : en:13



Скриншоты:
[+] Всего файлов в раздаче - 1:
Den.of.Thieves.2018.WEB-DL.1080p.ExKinoRay.mkv5.24 GB

Текущая раздача:
ДатаКомментарии    РазмерПиры
2018-04-12 U Охота на воров / Den of Thieves (2018) WEB-DL 1080p от ExKinoRay | iTunes 5.24 GB ↑ 472 ↓ 251

Показать еще раздачи по запросу охота:
2018-04-21 U Охота на воров / Den of Thieves (2018) HDRip от Scarabey | Театральная версия | iTunes 799.07 MB ↑ 35 ↓ 21
2018-04-21 U Охота на воров / Den of Thieves (2018) HDRip от Scarabey | Театральная версия | iTunes 1.45 GB ↑ 38 ↓ 18
2018-04-20 U Охота на воров / Den of Thieves (2018) BDRip от ExKinoRay | Театральная версия | iTunes 2.12 GB ↑ 73 ↓ 15
2018-04-19 U Охота на воров / Den of Thieves (2018) BDRip-AVC от HELLYWOOD | iTunes 2.84 GB ↑ 64 ↓ 39
2018-04-18 U Охота на воров / Den of Thieves (2018) BDRip от MegaPeer | Театральная версия | iTunes 2.12 GB ↑ 83 ↓ 51
2018-04-18 U Охота на воров / Den of Thieves (2018) BDRip 720p от ExKinoRay | iTunes 6.25 GB ↑ 26 ↓ 42
2018-04-18 U Охота на воров / Den of Thieves (2018) BDRip 1080p от ExKinoRay | iTunes 11.65 GB ↑ 35 ↓ 60

Отзывы
Зарегистрируйтесь чтобы добавить комментарий.
Обратная связь
Copyleft ©