↑↓Torrent.by
Поиск
Логин: Регистрация
Пароль: Восстановить пароль
Загрузка...

Тюльпаны: любовь, честь и велосипед / Tulipani: Liefde, Eer en een Fiets (2017) DVDRip | L2

Скачать tyulpany-lyubov-chest-i-velosiped-tulipani-liefde-eer-en-een-fiets-2017-dvdrip-l2.torrent
U Магнитная ссылка Размер: 1.43 GB Раздают: 42 Качают: 12 Добавлен: 2018-04-12 08:21:37
Тюльпаны: любовь, честь и велосипед / Tulipani: Liefde, Eer en een Fiets (2017) DVDRip | L2

Тюльпаны: любовь, честь и велосипед / Tulipani: Liefde, Eer en een Fiets

Страна: Нидерланды
Производство: Don Carmody Television, Draka Production, FATT Productions, Stemo Production
Год выпуска: 2017
Жанр:  драма, комедия
Продолжительность: 01:28:08

Режиссер: Майк ван Дим
Авторы сценария: Майк ван Дим, Питер ван Вийк

В ролях: Ксения Соло, Джанкарло Джаннини, Гийс Нейбр, Лидия Витале, Донателла Финокьяро, Джорджо Пазотти, Мишель Венитуччи, Елена Кантароне

Описание: Потеряв ферму во время наводнения 1953-го года, романтичный голландский фермер решает, что устал от местного климата. Он переезжает в Италию, чтобы выращивать тюльпаны в душной жаре Апулии. Там живёт Сабж - маленький мальчик, ставший лучшим другом главного героя...

Перевод: Любительский (двухголосый, закадровый) | Levelin
Субтитры: нет

Качество: DVDRip
Формат: AVI
Видео кодек: XviD
Аудио кодек: АС3
Видео: 720x304 (2.35:1), 25.000 fps, XviD ~1 407 kbps avg
Аудио №1: 48.0 kHz, AC3 Dolby Digital, 3/2 (L,C,R,l,r) + LFE ch, ~448 kbps | RUS
Аудио №2: 48.0 kHz, AC3 Dolby Digital, 3/2 (L,C,R,l,r) + LFE ch, ~448 kbps | ITA

Дата премьеры (мир): 8 сентября 2017

Семпл

Релиз от: blizzardkid


[+] Media Info
General
Полное имя                               : Tulipani - Love, Honour and a Bicycle (2017.avi
Формат                                   : AVI
Формат/Информация                        : Audio Video Interleave
Размер файла                             : 1,43 Гбайт
Продолжительность                        : 1 ч. 28 м.
Общий поток                              : 2317 Кбит/сек
Программа кодирования                    : VirtualDubMod 1.5.10.2 (build 2542/release)
Библиотека кодирования                   : VirtualDubMod build 2542/release

Видео
Идентификатор                            : 0
Формат                                   : MPEG-4 Visual
Профиль формата                          : Advanced Simple@L5
Параметр BVOP формата                    : 1
Параметр QPel формата                    : Нет
Параметр GMC формата                     : Без точки перехода
Параметр матрицы формата                 : Default (MPEG)
Идентификатор кодека                     : XVID
Идентификатор кодека/Подсказка           : XviD
Продолжительность                        : 1 ч. 28 м.
Битрейт                                  : 1407 Кбит/сек
Ширина                                   : 720 пикселей
Высота                                   : 304 пикселя
Соотношение сторон                       : 2,35:1
Частота кадров                           : 25,000 кадров/сек
Цветовое пространство                    : YUV
Субдискретизация насыщенности            : 4:2:0
Битовая глубина                          : 8 бит
Тип развёртки                            : Прогрессивная
Метод сжатия                             : С потерями
Бит/(Пиксели*Кадры)                      : 0.257
Размер потока                            : 887 Мбайт (61%)
Библиотека кодирования                   : XviD 1.2.1 (UTC 2008-12-04)

Аудио #1
Идентификатор                            : 1
Формат                                   : AC-3
Формат/Информация                        : Audio Coding 3
Параметр Endianness формата              : Big
Идентификатор кодека                     : 2000
Продолжительность                        : 1 ч. 28 м.
Вид битрейта                             : Постоянный
Битрейт                                  : 448 Кбит/сек
Каналы                                   : 6 каналов
Расположение каналов                     : Front: L C R, Side: L R, LFE
Частота                                  : 48,0 КГц
Частота кадров                           : 31,250 кадров/сек (1536 spf)
Битовая глубина                          : 16 бит
Метод сжатия                             : С потерями
Размер потока                            : 282 Мбайт (19%)
Выравнивание                             : Разделение по промежуткам
Продолжительность промежутка             : 40  мс. (1,00 видеокадр)
Время предзагрузки промежутка            : 500  мс.

Аудио #2
Идентификатор                            : 2
Формат                                   : AC-3
Формат/Информация                        : Audio Coding 3
Параметр Endianness формата              : Big
Идентификатор кодека                     : 2000
Продолжительность                        : 1 ч. 28 м.
Вид битрейта                             : Постоянный
Битрейт                                  : 448 Кбит/сек
Каналы                                   : 6 каналов
Расположение каналов                     : Front: L C R, Side: L R, LFE
Частота                                  : 48,0 КГц
Частота кадров                           : 31,250 кадров/сек (1536 spf)
Битовая глубина                          : 16 бит
Метод сжатия                             : С потерями
Размер потока                            : 282 Мбайт (19%)
Выравнивание                             : Разделение по промежуткам
Продолжительность промежутка             : 40  мс. (1,00 видеокадр)
Время предзагрузки промежутка            : 500  мс.



Скриншоты:
[+] Всего файлов в раздаче - 1:
Tulipani - Love, Honour and a Bicycle (2017.avi1.43 GB

Отзывы
Зарегистрируйтесь чтобы добавить комментарий.
Обратная связь
Copyleft ©